  0
SECTION
  2
HEADER
  9
$ACADVER
  1
AC1015
  9
$ACADMAINTVER
 70
    20
  9
$DWGCODEPAGE
  3
ANSI_932
  9
$INSBASE
 10
0.0
 20
0.0
 30
0.0
  9
$EXTMIN
 10
-453.8734459920295
 20
4.0
 30
0.0
  9
$EXTMAX
 10
2784.000000000001
 20
2024.0
 30
0.0
  9
$LIMMIN
 10
0.0
 20
0.0
  9
$LIMMAX
 10
29700.0
 20
21000.0
  9
$ORTHOMODE
 70
     1
  9
$REGENMODE
 70
     1
  9
$FILLMODE
 70
     1
  9
$QTEXTMODE
 70
     0
  9
$MIRRTEXT
 70
     1
  9
$LTSCALE
 40
4.0
  9
$ATTMODE
 70
     1
  9
$TEXTSIZE
 40
35.0
  9
$TRACEWID
 40
1.0
  9
$TEXTSTYLE
  7
Standard
  9
$CLAYER
  8
実形
  9
$CELTYPE
  6
ByLayer
  9
$CECOLOR
 62
     3
  9
$CELTSCALE
 40
1.0
  9
$DISPSILH
 70
     0
  9
$DIMSCALE
 40
1.0
  9
$DIMASZ
 40
30.0
  9
$DIMEXO
 40
65.0
  9
$DIMDLI
 40
3.75
  9
$DIMRND
 40
0.0
  9
$DIMDLE
 40
0.0
  9
$DIMEXE
 40
0.0
  9
$DIMTP
 40
0.0
  9
$DIMTM
 40
0.0
  9
$DIMTXT
 40
25.0
  9
$DIMCEN
 40
2.5
  9
$DIMTSZ
 40
0.0
  9
$DIMTOL
 70
     0
  9
$DIMLIM
 70
     0
  9
$DIMTIH
 70
     0
  9
$DIMTOH
 70
     0
  9
$DIMSE1
 70
     0
  9
$DIMSE2
 70
     0
  9
$DIMTAD
 70
     1
  9
$DIMZIN
 70
     8
  9
$DIMBLK
  1
DotSmall
  9
$DIMASO
 70
     1
  9
$DIMSHO
 70
     1
  9
$DIMPOST
  1

  9
$DIMAPOST
  1

  9
$DIMALT
 70
     0
  9
$DIMALTD
 70
     3
  9
$DIMALTF
 40
0.03937007874016
  9
$DIMLFAC
 40
1.0
  9
$DIMTOFL
 70
     1
  9
$DIMTVP
 40
0.0
  9
$DIMTIX
 70
     0
  9
$DIMSOXD
 70
     0
  9
$DIMSAH
 70
     0
  9
$DIMBLK1
  1

  9
$DIMBLK2
  1

  9
$DIMSTYLE
  2
ISO-25
  9
$DIMCLRD
 70
     0
  9
$DIMCLRE
 70
     0
  9
$DIMCLRT
 70
     0
  9
$DIMTFAC
 40
1.0
  9
$DIMGAP
 40
6.25
  9
$DIMJUST
 70
     0
  9
$DIMSD1
 70
     0
  9
$DIMSD2
 70
     0
  9
$DIMTOLJ
 70
     0
  9
$DIMTZIN
 70
     8
  9
$DIMALTZ
 70
     0
  9
$DIMALTTZ
 70
     0
  9
$DIMUPT
 70
     0
  9
$DIMDEC
 70
     2
  9
$DIMTDEC
 70
     2
  9
$DIMALTU
 70
     2
  9
$DIMALTTD
 70
     3
  9
$DIMTXSTY
  7
Standard
  9
$DIMAUNIT
 70
     0
  9
$DIMADEC
 70
     0
  9
$DIMALTRND
 40
0.0
  9
$DIMAZIN
 70
     0
  9
$DIMDSEP
 70
    46
  9
$DIMATFIT
 70
     3
  9
$DIMFRAC
 70
     0
  9
$DIMLDRBLK
  1
Open30
  9
$DIMLUNIT
 70
     2
  9
$DIMLWD
 70
    15
  9
$DIMLWE
 70
    15
  9
$DIMTMOVE
 70
     1
  9
$LUNITS
 70
     2
  9
$LUPREC
 70
     2
  9
$SKETCHINC
 40
1.0
  9
$FILLETRAD
 40
30.0
  9
$AUNITS
 70
     0
  9
$AUPREC
 70
     0
  9
$MENU
  1
.
  9
$ELEVATION
 40
0.0
  9
$PELEVATION
 40
0.0
  9
$THICKNESS
 40
0.0
  9
$LIMCHECK
 70
     1
  9
$CHAMFERA
 40
10.0
  9
$CHAMFERB
 40
10.0
  9
$CHAMFERC
 40
20.0
  9
$CHAMFERD
 40
0.0
  9
$SKPOLY
 70
     0
  9
$TDCREATE
 40
2451673.575802199
  9
$TDUCREATE
 40
2451673.200802199
  9
$TDUPDATE
 40
2458809.802105335
  9
$TDUUPDATE
 40
2458809.427105336
  9
$TDINDWG
 40
1.6127324421
  9
$TDUSRTIMER
 40
1.6127317477
  9
$USRTIMER
 70
     1
  9
$ANGBASE
 50
0.0
  9
$ANGDIR
 70
     0
  9
$PDMODE
 70
     0
  9
$PDSIZE
 40
0.0
  9
$PLINEWID
 40
0.0
  9
$SPLFRAME
 70
     0
  9
$SPLINETYPE
 70
     6
  9
$SPLINESEGS
 70
     8
  9
$HANDSEED
  5
388E
  9
$SURFTAB1
 70
     6
  9
$SURFTAB2
 70
     6
  9
$SURFTYPE
 70
     6
  9
$SURFU
 70
     6
  9
$SURFV
 70
     6
  9
$UCSBASE
  2

  9
$UCSNAME
  2

  9
$UCSORG
 10
0.0
 20
0.0
 30
0.0
  9
$UCSXDIR
 10
1.0
 20
0.0
 30
0.0
  9
$UCSYDIR
 10
0.0
 20
1.0
 30
0.0
  9
$UCSORTHOREF
  2

  9
$UCSORTHOVIEW
 70
     0
  9
$UCSORGTOP
 10
0.0
 20
0.0
 30
0.0
  9
$UCSORGBOTTOM
 10
0.0
 20
0.0
 30
0.0
  9
$UCSORGLEFT
 10
0.0
 20
0.0
 30
0.0
  9
$UCSORGRIGHT
 10
0.0
 20
0.0
 30
0.0
  9
$UCSORGFRONT
 10
0.0
 20
0.0
 30
0.0
  9
$UCSORGBACK
 10
0.0
 20
0.0
 30
0.0
  9
$PUCSBASE
  2

  9
$PUCSNAME
  2

  9
$PUCSORG
 10
0.0
 20
0.0
 30
0.0
  9
$PUCSXDIR
 10
1.0
 20
0.0
 30
0.0
  9
$PUCSYDIR
 10
0.0
 20
1.0
 30
0.0
  9
$PUCSORTHOREF
  2

  9
$PUCSORTHOVIEW
 70
     0
  9
$PUCSORGTOP
 10
0.0
 20
0.0
 30
0.0
  9
$PUCSORGBOTTOM
 10
0.0
 20
0.0
 30
0.0
  9
$PUCSORGLEFT
 10
0.0
 20
0.0
 30
0.0
  9
$PUCSORGRIGHT
 10
0.0
 20
0.0
 30
0.0
  9
$PUCSORGFRONT
 10
0.0
 20
0.0
 30
0.0
  9
$PUCSORGBACK
 10
0.0
 20
0.0
 30
0.0
  9
$USERI1
 70
     0
  9
$USERI2
 70
     0
  9
$USERI3
 70
     0
  9
$USERI4
 70
     0
  9
$USERI5
 70
     0
  9
$USERR1
 40
0.0
  9
$USERR2
 40
0.0
  9
$USERR3
 40
0.0
  9
$USERR4
 40
0.0
  9
$USERR5
 40
0.0
  9
$WORLDVIEW
 70
     1
  9
$SHADEDGE
 70
     3
  9
$SHADEDIF
 70
    70
  9
$TILEMODE
 70
     1
  9
$MAXACTVP
 70
    64
  9
$PINSBASE
 10
0.0
 20
0.0
 30
0.0
  9
$PLIMCHECK
 70
     0
  9
$PEXTMIN
 10
27.8447512626648
 20
20.24591643810271
 30
0.0
  9
$PEXTMAX
 10
250.6027613639831
 20
182.2132479429245
 30
0.0
  9
$PLIMMIN
 10
-3.757080078125
 20
-3.757083177566528
  9
$PLIMMAX
 10
293.2112426757813
 20
206.2162444591522
  9
$UNITMODE
 70
     0
  9
$VISRETAIN
 70
     1
  9
$PLINEGEN
 70
     0
  9
$PSLTSCALE
 70
     1
  9
$TREEDEPTH
 70
  3020
  9
$CMLSTYLE
  2
Standard
  9
$CMLJUST
 70
     0
  9
$CMLSCALE
 40
20.0
  9
$PROXYGRAPHICS
 70
     1
  9
$MEASUREMENT
 70
     1
  9
$CELWEIGHT
370
    -1
  9
$ENDCAPS
280
     0
  9
$JOINSTYLE
280
     0
  9
$LWDISPLAY
290
     0
  9
$INSUNITS
 70
     4
  9
$HYPERLINKBASE
  1

  9
$STYLESHEET
  1

  9
$XEDIT
290
     1
  9
$CEPSNTYPE
380
     0
  9
$PSTYLEMODE
290
     1
  9
$FINGERPRINTGUID
  2
{C8EA1F16-24C9-11D4-9416-CE0A3B32152F}
  9
$VERSIONGUID
  2
{A023D042-81C3-4299-ABA2-0627C0B30FF4}
  9
$EXTNAMES
290
     1
  9
$PSVPSCALE
 40
0.0
  9
$OLESTARTUP
290
     0
  0
ENDSEC
  0
SECTION
  2
CLASSES
  0
CLASS
  1
ACDBDICTIONARYWDFLT
  2
AcDbDictionaryWithDefault
  3
ObjectDBX Classes
 90
        0
280
     0
281
     0
  0
CLASS
  1
ACDBPLACEHOLDER
  2
AcDbPlaceHolder
  3
ObjectDBX Classes
 90
        0
280
     0
281
     0
  0
CLASS
  1
LAYOUT
  2
AcDbLayout
  3
ObjectDBX Classes
 90
        0
280
     0
281
     0
  0
CLASS
  1
DICTIONARYVAR
  2
AcDbDictionaryVar
  3
ObjectDBX Classes
 90
        0
280
     0
281
     0
  0
CLASS
  1
TABLESTYLE
  2
AcDbTableStyle
  3
ObjectDBX Classes
 90
     2047
280
     0
281
     0
  0
CLASS
  1
SORTENTSTABLE
  2
AcDbSortentsTable
  3
ObjectDBX Classes
 90
        0
280
     0
281
     0
  0
ENDSEC
  0
SECTION
  2
TABLES
  0
TABLE
  2
VPORT
  5
8
330
0
100
AcDbSymbolTable
 70
     2
  0
VPORT
  5
3882
330
8
100
AcDbSymbolTableRecord
100
AcDbViewportTableRecord
  2
*Active
 70
     0
 10
0.0
 20
0.0
 11
1.0
 21
1.0
 12
1440.470432790656
 22
932.420375941607
 13
0.0
 23
0.0
 14
10.0
 24
10.0
 15
10.0
 25
10.0
 16
0.0
 26
0.0
 36
1.0
 17
0.0
 27
0.0
 37
0.0
 40
2408.31053295827
 41
1.29038112522686
 42
50.0
 43
0.0
 44
0.0
 50
0.0
 51
0.0
 71
     0
 72
   100
 73
     1
 74
     3
 75
     0
 76
     0
 77
     0
 78
     0
281
     0
 65
     1
110
0.0
120
0.0
130
0.0
111
1.0
121
0.0
131
0.0
112
0.0
122
1.0
132
0.0
 79
     0
146
0.0
  0
ENDTAB
  0
TABLE
  2
LTYPE
  5
5
330
0
100
AcDbSymbolTable
 70
    46
  0
LTYPE
  5
14
330
5
100
AcDbSymbolTableRecord
100
AcDbLinetypeTableRecord
  2
ByBlock
 70
     0
  3

 72
    65
 73
     0
 40
0.0
  0
LTYPE
  5
15
330
5
100
AcDbSymbolTableRecord
100
AcDbLinetypeTableRecord
  2
ByLayer
 70
     0
  3

 72
    65
 73
     0
 40
0.0
  0
LTYPE
  5
16
330
5
100
AcDbSymbolTableRecord
100
AcDbLinetypeTableRecord
  2
Continuous
 70
     0
  3
Solid line
 72
    65
 73
     0
 40
0.0
  0
LTYPE
  5
34
330
5
100
AcDbSymbolTableRecord
100
AcDbLinetypeTableRecord
  2
ACAD_ISO02W100
 70
     0
  3
ISO dash __ __ __ __ __ __ __ __ __ __ __ __ __
 72
    65
 73
     2
 40
15.0
 49
12.0
 74
     0
 49
-3.0
 74
     0
  0
LTYPE
  5
35
330
5
100
AcDbSymbolTableRecord
100
AcDbLinetypeTableRecord
  2
ACAD_ISO03W100
 70
     0
  3
ISO dash space __    __    __    __    __    __
 72
    65
 73
     2
 40
30.0
 49
12.0
 74
     0
 49
-18.0
 74
     0
  0
LTYPE
  5
36
330
5
100
AcDbSymbolTableRecord
100
AcDbLinetypeTableRecord
  2
ACAD_ISO04W100
 70
     0
  3
ISO long-dash dot ____ . ____ . ____ . ____ . _
 72
    65
 73
     4
 40
30.0
 49
24.0
 74
     0
 49
-3.0
 74
     0
 49
0.0
 74
     0
 49
-3.0
 74
     0
  0
LTYPE
  5
37
330
5
100
AcDbSymbolTableRecord
100
AcDbLinetypeTableRecord
  2
ACAD_ISO05W100
 70
     0
  3
ISO long-dash double-dot ____ .. ____ .. ____ .
 72
    65
 73
     6
 40
34.0
 49
24.0
 74
     0
 49
-3.0
 74
     0
 49
0.5
 74
     0
 49
-3.0
 74
     0
 49
0.5
 74
     0
 49
-3.0
 74
     0
  0
LTYPE
  5
38
330
5
100
AcDbSymbolTableRecord
100
AcDbLinetypeTableRecord
  2
ACAD_ISO06W100
 70
     0
  3
ISO long-dash triple-dot ____ ... ____ ... ____
 72
    65
 73
     8
 40
37.5
 49
24.0
 74
     0
 49
-3.0
 74
     0
 49
0.5
 74
     0
 49
-3.0
 74
     0
 49
0.5
 74
     0
 49
-3.0
 74
     0
 49
0.5
 74
     0
 49
-3.0
 74
     0
  0
LTYPE
  5
39
330
5
100
AcDbSymbolTableRecord
100
AcDbLinetypeTableRecord
  2
ACAD_ISO07W100
 70
     0
  3
ISO dot . . . . . . . . . . . . . . . . . . . .
 72
    65
 73
     2
 40
3.0
 49
0.0
 74
     0
 49
-3.0
 74
     0
  0
LTYPE
  5
3A
330
5
100
AcDbSymbolTableRecord
100
AcDbLinetypeTableRecord
  2
ACAD_ISO08W100
 70
     0
  3
ISO long-dash short-dash ____ __ ____ __ ____ _
 72
    65
 73
     4
 40
36.0
 49
24.0
 74
     0
 49
-3.0
 74
     0
 49
6.0
 74
     0
 49
-3.0
 74
     0
  0
LTYPE
  5
3B
330
5
100
AcDbSymbolTableRecord
100
AcDbLinetypeTableRecord
  2
ACAD_ISO09W100
 70
     0
  3
ISO long-dash double-short-dash ____ __ __ ____
 72
    65
 73
     6
 40
45.0
 49
24.0
 74
     0
 49
-3.0
 74
     0
 49
6.0
 74
     0
 49
-3.0
 74
     0
 49
6.0
 74
     0
 49
-3.0
 74
     0
  0
LTYPE
  5
3C
330
5
100
AcDbSymbolTableRecord
100
AcDbLinetypeTableRecord
  2
ACAD_ISO10W100
 70
     0
  3
ISO dash dot __ . __ . __ . __ . __ . __ . __ .
 72
    65
 73
     4
 40
18.0
 49
12.0
 74
     0
 49
-3.0
 74
     0
 49
0.0
 74
     0
 49
-3.0
 74
     0
  0
LTYPE
  5
3D
330
5
100
AcDbSymbolTableRecord
100
AcDbLinetypeTableRecord
  2
ACAD_ISO11W100
 70
     0
  3
ISO double-dash dot __ __ . __ __ . __ __ . __ 
 72
    65
 73
     6
 40
33.0
 49
12.0
 74
     0
 49
-3.0
 74
     0
 49
12.0
 74
     0
 49
-3.0
 74
     0
 49
0.0
 74
     0
 49
-3.0
 74
     0
  0
LTYPE
  5
3E
330
5
100
AcDbSymbolTableRecord
100
AcDbLinetypeTableRecord
  2
ACAD_ISO12W100
 70
     0
  3
ISO dash double-dot __ . . __ . . __ . . __ . .
 72
    65
 73
     6
 40
21.0
 49
12.0
 74
     0
 49
-3.0
 74
     0
 49
0.0
 74
     0
 49
-3.0
 74
     0
 49
0.0
 74
     0
 49
-3.0
 74
     0
  0
LTYPE
  5
3F
330
5
100
AcDbSymbolTableRecord
100
AcDbLinetypeTableRecord
  2
ACAD_ISO13W100
 70
     0
  3
ISO double-dash double-dot __ __ . . __ __ . . 
 72
    65
 73
     8
 40
36.0
 49
12.0
 74
     0
 49
-3.0
 74
     0
 49
12.0
 74
     0
 49
-3.0
 74
     0
 49
0.0
 74
     0
 49
-3.0
 74
     0
 49
0.0
 74
     0
 49
-3.0
 74
     0
  0
LTYPE
  5
40
330
5
100
AcDbSymbolTableRecord
100
AcDbLinetypeTableRecord
  2
ACAD_ISO14W100
 70
     0
  3
ISO dash triple-dot __ . . . __ . . . __ . . . 
 72
    65
 73
     8
 40
24.0
 49
12.0
 74
     0
 49
-3.0
 74
     0
 49
0.0
 74
     0
 49
-3.0
 74
     0
 49
0.0
 74
     0
 49
-3.0
 74
     0
 49
0.0
 74
     0
 49
-3.0
 74
     0
  0
LTYPE
  5
41
330
5
100
AcDbSymbolTableRecord
100
AcDbLinetypeTableRecord
  2
ACAD_ISO15W100
 70
     0
  3
ISO double-dash triple-dot __ __ . . . __ __ . 
 72
    65
 73
    10
 40
39.0
 49
12.0
 74
     0
 49
-3.0
 74
     0
 49
12.0
 74
     0
 49
-3.0
 74
     0
 49
0.0
 74
     0
 49
-3.0
 74
     0
 49
0.0
 74
     0
 49
-3.0
 74
     0
 49
0.0
 74
     0
 49
-3.0
 74
     0
  0
LTYPE
  5
42
330
5
100
AcDbSymbolTableRecord
100
AcDbLinetypeTableRecord
  2
BATTING
 70
     0
  3
Batting SSSSSSSSSSSSSSSSSSSSSSSSSSSSSSSSSSSSSSS
 72
    65
 73
     4
 40
10.16254
 49
0.00254
 74
     0
 49
-2.54
 74
     4
 75
   134
340
33
 46
2.54
 50
0.0
 44
-2.54
 45
0.0
 49
-5.08
 74
     4
 75
   134
340
33
 46
2.54
 50
180.0
 44
2.54
 45
0.0
 49
-2.54
 74
     0
  0
LTYPE
  5
43
330
5
100
AcDbSymbolTableRecord
100
AcDbLinetypeTableRecord
  2
BORDER
 70
     0
  3
Border __ __ . __ __ . __ __ . __ __ . __ __ .
 72
    65
 73
     6
 40
44.45
 49
12.7
 74
     0
 49
-6.349999999999999
 74
     0
 49
12.7
 74
     0
 49
-6.349999999999999
 74
     0
 49
0.0
 74
     0
 49
-6.349999999999999
 74
     0
  0
LTYPE
  5
44
330
5
100
AcDbSymbolTableRecord
100
AcDbLinetypeTableRecord
  2
BORDER2
 70
     0
  3
Border (.5x) __.__.__.__.__.__.__.__.__.__.__.
 72
    65
 73
     6
 40
22.225
 49
6.349999999999999
 74
     0
 49
-3.174999999999999
 74
     0
 49
6.349999999999999
 74
     0
 49
-3.174999999999999
 74
     0
 49
0.0
 74
     0
 49
-3.174999999999999
 74
     0
  0
LTYPE
  5
45
330
5
100
AcDbSymbolTableRecord
100
AcDbLinetypeTableRecord
  2
BORDERX2
 70
     0
  3
Border (2x) ____  ____  .  ____  ____  .  ___
 72
    65
 73
     6
 40
88.9
 49
25.4
 74
     0
 49
-12.7
 74
     0
 49
25.4
 74
     0
 49
-12.7
 74
     0
 49
0.0
 74
     0
 49
-12.7
 74
     0
  0
LTYPE
  5
46
330
5
100
AcDbSymbolTableRecord
100
AcDbLinetypeTableRecord
  2
CENTER
 70
     0
  3
Center ____ _ ____ _ ____ _ ____ _ ____ _ ____
 72
    65
 73
     4
 40
50.8
 49
31.75
 74
     0
 49
-6.349999999999999
 74
     0
 49
6.349999999999999
 74
     0
 49
-6.349999999999999
 74
     0
  0
LTYPE
  5
47
330
5
100
AcDbSymbolTableRecord
100
AcDbLinetypeTableRecord
  2
CENTER2
 70
     0
  3
Center (.5x) ___ _ ___ _ ___ _ ___ _ ___ _ ___
 72
    65
 73
     4
 40
28.575
 49
19.05
 74
     0
 49
-3.174999999999999
 74
     0
 49
3.174999999999999
 74
     0
 49
-3.174999999999999
 74
     0
  0
LTYPE
  5
48
330
5
100
AcDbSymbolTableRecord
100
AcDbLinetypeTableRecord
  2
CENTERX2
 70
     0
  3
Center (2x) ________  __  ________  __  _____
 72
    65
 73
     4
 40
101.6
 49
63.5
 74
     0
 49
-12.7
 74
     0
 49
12.7
 74
     0
 49
-12.7
 74
     0
  0
LTYPE
  5
49
330
5
100
AcDbSymbolTableRecord
100
AcDbLinetypeTableRecord
  2
DASHDOT
 70
     0
  3
Dash dot __ . __ . __ . __ . __ . __ . __ . __
 72
    65
 73
     4
 40
25.4
 49
12.7
 74
     0
 49
-6.349999999999999
 74
     0
 49
0.0
 74
     0
 49
-6.349999999999999
 74
     0
  0
LTYPE
  5
4A
330
5
100
AcDbSymbolTableRecord
100
AcDbLinetypeTableRecord
  2
DASHDOT2
 70
     0
  3
Dash dot (.5x) _._._._._._._._._._._._._._._.
 72
    65
 73
     4
 40
12.7
 49
6.349999999999999
 74
     0
 49
-3.174999999999999
 74
     0
 49
0.0
 74
     0
 49
-3.174999999999999
 74
     0
  0
LTYPE
  5
4B
330
5
100
AcDbSymbolTableRecord
100
AcDbLinetypeTableRecord
  2
DASHDOTX2
 70
     0
  3
Dash dot (2x) ____  .  ____  .  ____  .  ___
 72
    65
 73
     4
 40
50.8
 49
25.4
 74
     0
 49
-12.7
 74
     0
 49
0.0
 74
     0
 49
-12.7
 74
     0
  0
LTYPE
  5
4C
330
5
100
AcDbSymbolTableRecord
100
AcDbLinetypeTableRecord
  2
DASHED
 70
     0
  3
Dashed __ __ __ __ __ __ __ __ __ __ __ __ __ _
 72
    65
 73
     2
 40
19.05
 49
12.7
 74
     0
 49
-6.349999999999999
 74
     0
  0
LTYPE
  5
4D
330
5
100
AcDbSymbolTableRecord
100
AcDbLinetypeTableRecord
  2
DASHED2
 70
     0
  3
Dashed (.5x) _ _ _ _ _ _ _ _ _ _ _ _ _ _ _ _ _
 72
    65
 73
     2
 40
9.524999999999998
 49
6.349999999999999
 74
     0
 49
-3.174999999999999
 74
     0
  0
LTYPE
  5
4E
330
5
100
AcDbSymbolTableRecord
100
AcDbLinetypeTableRecord
  2
DASHEDX2
 70
     0
  3
Dashed (2x) ____  ____  ____  ____  ____  ___
 72
    65
 73
     2
 40
38.1
 49
25.4
 74
     0
 49
-12.7
 74
     0
  0
LTYPE
  5
4F
330
5
100
AcDbSymbolTableRecord
100
AcDbLinetypeTableRecord
  2
DIVIDE
 70
     0
  3
Divide ____ . . ____ . . ____ . . ____ . . ____
 72
    65
 73
     6
 40
31.75
 49
12.7
 74
     0
 49
-6.349999999999999
 74
     0
 49
0.0
 74
     0
 49
-6.349999999999999
 74
     0
 49
0.0
 74
     0
 49
-6.349999999999999
 74
     0
  0
LTYPE
  5
50
330
5
100
AcDbSymbolTableRecord
100
AcDbLinetypeTableRecord
  2
DIVIDE2
 70
     0
  3
Divide (.5x) __..__..__..__..__..__..__..__.._
 72
    65
 73
     6
 40
15.875
 49
6.349999999999999
 74
     0
 49
-3.174999999999999
 74
     0
 49
0.0
 74
     0
 49
-3.174999999999999
 74
     0
 49
0.0
 74
     0
 49
-3.174999999999999
 74
     0
  0
LTYPE
  5
51
330
5
100
AcDbSymbolTableRecord
100
AcDbLinetypeTableRecord
  2
DIVIDEX2
 70
     0
  3
Divide (2x) ________  .  .  ________  .  .  _
 72
    65
 73
     6
 40
63.49999999999999
 49
25.4
 74
     0
 49
-12.7
 74
     0
 49
0.0
 74
     0
 49
-12.7
 74
     0
 49
0.0
 74
     0
 49
-12.7
 74
     0
  0
LTYPE
  5
52
330
5
100
AcDbSymbolTableRecord
100
AcDbLinetypeTableRecord
  2
DOT
 70
     0
  3
Dot . . . . . . . . . . . . . . . . . . . . . .
 72
    65
 73
     2
 40
6.349999999999999
 49
0.0
 74
     0
 49
-6.349999999999999
 74
     0
  0
LTYPE
  5
53
330
5
100
AcDbSymbolTableRecord
100
AcDbLinetypeTableRecord
  2
DOT2
 70
     0
  3
Dot (.5x) .....................................
 72
    65
 73
     2
 40
3.174999999999999
 49
0.0
 74
     0
 49
-3.174999999999999
 74
     0
  0
LTYPE
  5
54
330
5
100
AcDbSymbolTableRecord
100
AcDbLinetypeTableRecord
  2
DOTX2
 70
     0
  3
Dot (2x) .  .  .  .  .  .  .  .  .  .  .  .  . 
 72
    65
 73
     2
 40
12.7
 49
0.0
 74
     0
 49
-12.7
 74
     0
  0
LTYPE
  5
55
330
5
100
AcDbSymbolTableRecord
100
AcDbLinetypeTableRecord
  2
FENCELINE1
 70
     0
  3
Fenceline circle ----0-----0----0-----0----0---
 72
    65
 73
     4
 40
36.83
 49
6.349999999999999
 74
     0
 49
-2.54
 74
     4
 75
   133
340
33
 46
2.54
 50
0.0
 44
-2.54
 45
0.0
 49
-2.54
 74
     0
 49
25.4
 74
     0
  0
LTYPE
  5
56
330
5
100
AcDbSymbolTableRecord
100
AcDbLinetypeTableRecord
  2
FENCELINE2
 70
     0
  3
Fenceline square ----[]-----[]----[]-----[]----
 72
    65
 73
     4
 40
36.83
 49
6.349999999999999
 74
     0
 49
-2.54
 74
     4
 75
   132
340
33
 46
2.54
 50
0.0
 44
-2.54
 45
0.0
 49
-2.54
 74
     0
 49
25.4
 74
     0
  0
LTYPE
  5
57
330
5
100
AcDbSymbolTableRecord
100
AcDbLinetypeTableRecord
  2
GAS_LINE
 70
     0
  3
Gas line ----GAS----GAS----GAS----GAS----GAS---
 72
    65
 73
     3
 40
24.13
 49
12.7
 74
     0
 49
-5.08
 74
     2
 75
     0
340
11
 46
2.54
 50
0.0
 44
-2.54
 45
-1.27
  9
GAS
 49
-6.349999999999999
 74
     0
  0
LTYPE
  5
58
330
5
100
AcDbSymbolTableRecord
100
AcDbLinetypeTableRecord
  2
HIDDEN
 70
     0
  3
Hidden __ __ __ __ __ __ __ __ __ __ __ __ __ _
 72
    65
 73
     2
 40
9.524999999999998
 49
6.349999999999999
 74
     0
 49
-3.174999999999999
 74
     0
  0
LTYPE
  5
59
330
5
100
AcDbSymbolTableRecord
100
AcDbLinetypeTableRecord
  2
HIDDEN2
 70
     0
  3
Hidden (.5x) _ _ _ _ _ _ _ _ _ _ _ _ _ _ _ _ _
 72
    65
 73
     2
 40
4.762499999999999
 49
3.174999999999999
 74
     0
 49
-1.587499999999999
 74
     0
  0
LTYPE
  5
5A
330
5
100
AcDbSymbolTableRecord
100
AcDbLinetypeTableRecord
  2
HIDDENX2
 70
     0
  3
Hidden (2x) ____ ____ ____ ____ ____ ____ ____
 72
    65
 73
     2
 40
19.05
 49
12.7
 74
     0
 49
-6.349999999999999
 74
     0
  0
LTYPE
  5
5B
330
5
100
AcDbSymbolTableRecord
100
AcDbLinetypeTableRecord
  2
HOT_WATER_SUPPLY
 70
     0
  3
Hot water supply ---- HW ---- HW ---- HW ----
 72
    65
 73
     3
 40
22.86
 49
12.7
 74
     0
 49
-5.08
 74
     2
 75
     0
340
11
 46
2.54
 50
0.0
 44
-2.54
 45
-1.27
  9
HW
 49
-5.08
 74
     0
  0
LTYPE
  5
5C
330
5
100
AcDbSymbolTableRecord
100
AcDbLinetypeTableRecord
  2
PHANTOM
 70
     0
  3
Phantom ______  __  __  ______  __  __  ______
 72
    65
 73
     6
 40
63.5
 49
31.75
 74
     0
 49
-6.349999999999999
 74
     0
 49
6.349999999999999
 74
     0
 49
-6.349999999999999
 74
     0
 49
6.349999999999999
 74
     0
 49
-6.349999999999999
 74
     0
  0
LTYPE
  5
5D
330
5
100
AcDbSymbolTableRecord
100
AcDbLinetypeTableRecord
  2
PHANTOM2
 70
     0
  3
Phantom (.5x) ___ _ _ ___ _ _ ___ _ _ ___ _ _
 72
    65
 73
     6
 40
31.75
 49
15.875
 74
     0
 49
-3.174999999999999
 74
     0
 49
3.174999999999999
 74
     0
 49
-3.174999999999999
 74
     0
 49
3.174999999999999
 74
     0
 49
-3.174999999999999
 74
     0
  0
LTYPE
  5
5E
330
5
100
AcDbSymbolTableRecord
100
AcDbLinetypeTableRecord
  2
PHANTOMX2
 70
     0
  3
Phantom (2x) ____________    ____    ____   _
 72
    65
 73
     6
 40
127.0
 49
63.5
 74
     0
 49
-12.7
 74
     0
 49
12.7
 74
     0
 49
-12.7
 74
     0
 49
12.7
 74
     0
 49
-12.7
 74
     0
  0
LTYPE
  5
5F
330
5
100
AcDbSymbolTableRecord
100
AcDbLinetypeTableRecord
  2
TRACKS
 70
     0
  3
Tracks -|-|-|-|-|-|-|-|-|-|-|-|-|-|-|-|-|-|-|-|
 72
    65
 73
     2
 40
7.62
 49
3.81
 74
     4
 75
   130
340
33
 46
6.349999999999999
 50
0.0
 44
0.0
 45
0.0
 49
3.81
 74
     0
  0
LTYPE
  5
60
330
5
100
AcDbSymbolTableRecord
100
AcDbLinetypeTableRecord
  2
ZIGZAG
 70
     0
  3
Zig zag /\/\/\/\/\/\/\/\/\/\/\/\/\/\/\/\/\/\/\/
 72
    65
 73
     4
 40
20.32254
 49
0.00254
 74
     0
 49
-5.08
 74
     4
 75
   131
340
33
 46
5.08
 50
0.0
 44
-5.08
 45
0.0
 49
-10.16
 74
     4
 75
   131
340
33
 46
5.08
 50
180.0
 44
5.08
 45
0.0
 49
-5.08
 74
     0
  0
ENDTAB
  0
TABLE
  2
LAYER
  5
2
102
{ACAD_XDICTIONARY
360
1A37
102
}
330
0
100
AcDbSymbolTable
 70
     7
  0
LAYER
  5
10
330
2
100
AcDbSymbolTableRecord
100
AcDbLayerTableRecord
  2
0
 70
     0
 62
     7
  6
Continuous
370
    -3
390
F
  0
LAYER
  5
C3
330
2
100
AcDbSymbolTableRecord
100
AcDbLayerTableRecord
  2
Defpoints
 70
     0
 62
     7
  6
Continuous
290
     0
370
    -3
390
F
  0
LAYER
  5
256
330
2
100
AcDbSymbolTableRecord
100
AcDbLayerTableRecord
  2
Cen
 70
     0
 62
     7
  6
CENTER2
370
    15
390
F
  0
LAYER
  5
5DF
330
2
100
AcDbSymbolTableRecord
100
AcDbLayerTableRecord
  2
実形
 70
     0
 62
     7
  6
Continuous
370
    -3
390
F
  0
LAYER
  5
60C
330
2
100
AcDbSymbolTableRecord
100
AcDbLayerTableRecord
  2
補助
 70
     0
 62
     7
  6
Continuous
370
    -3
390
F
  0
LAYER
  5
619
330
2
100
AcDbSymbolTableRecord
100
AcDbLayerTableRecord
  2
センター
 70
     0
 62
     7
  6
CENTER2
370
    18
390
F
  0
LAYER
  5
61A
330
2
100
AcDbSymbolTableRecord
100
AcDbLayerTableRecord
  2
寸法
 70
     0
 62
     7
  6
Continuous
370
    18
390
F
  0
ENDTAB
  0
TABLE
  2
STYLE
  5
3
330
0
100
AcDbSymbolTable
 70
     4
  0
STYLE
  5
11
330
3
100
AcDbSymbolTableRecord
100
AcDbTextStyleTableRecord
  2
Standard
 70
     0
 40
0.0
 41
1.0
 50
0.0
 71
     0
 42
35.0
  3
txt.shx
  4
bigfont.shx
  0
STYLE
  5
33
330
3
100
AcDbSymbolTableRecord
100
AcDbTextStyleTableRecord
  2

 70
     1
 40
0.0
 41
1.0
 50
0.0
 71
     0
 42
2.5
  3
ltypeshp.shx
  4

  0
STYLE
  5
1BE6
330
3
100
AcDbSymbolTableRecord
100
AcDbTextStyleTableRecord
  2
ms明朝
 70
     0
 40
0.0
 41
1.0
 50
0.0
 71
     0
 42
25.0
  3
MS Mincho.ttf
  4

1001
ACAD
1000
MS Mincho
1071
    32785
  0
STYLE
  5
1BE7
330
3
100
AcDbSymbolTableRecord
100
AcDbTextStyleTableRecord
  2
明朝
 70
     0
 40
0.0
 41
1.0
 50
0.0
 71
     0
 42
25.0
  3
MS Mincho.ttf
  4

1001
ACAD
1000
MS Mincho
1071
    32785
  0
ENDTAB
  0
TABLE
  2
VIEW
  5
6
330
0
100
AcDbSymbolTable
 70
     0
  0
ENDTAB
  0
TABLE
  2
UCS
  5
7
330
0
100
AcDbSymbolTable
 70
     0
  0
ENDTAB
  0
TABLE
  2
APPID
  5
9
330
0
100
AcDbSymbolTable
 70
     1
  0
APPID
  5
12
330
9
100
AcDbSymbolTableRecord
100
AcDbRegAppTableRecord
  2
ACAD
 70
     0
  0
ENDTAB
  0
TABLE
  2
DIMSTYLE
  5
A
330
0
100
AcDbSymbolTable
 70
     1
100
AcDbDimStyleTable
 71
     1
340
27
  0
DIMSTYLE
105
27
102
{ACAD_REACTORS
330
473
330
480
330
586
330
1EC5
330
1EE2
330
1F2C
330
1F4A
330
1F57
330
1F89
330
1FBA
330
204F
330
2095
330
20D9
330
384
330
2BF2
330
2BF3
330
2BF4
330
2BF5
330
2BF6
330
2E2E
330
2E2F
330
2FE9
330
2FEA
330
3242
330
324F
330
328D
330
32CA
330
32E0
330
3327
330
3335
330
3369
330
33A9
330
341A
330
3798
330
37E1
330
37EE
330
37FB
102
}
330
A
100
AcDbSymbolTableRecord
100
AcDbDimStyleTableRecord
  2
ISO-25
 70
     0
 41
30.0
 42
65.0
 43
3.75
 44
0.0
 73
     0
 74
     0
 77
     1
 78
     8
140
25.0
141
2.5
143
0.03937007874016
147
6.25
171
     3
172
     1
271
     2
272
     2
274
     3
283
     0
284
     8
340
11
341
DA
342
D0
371
    15
372
    15
  0
ENDTAB
  0
TABLE
  2
BLOCK_RECORD
  5
1
330
0
100
AcDbSymbolTable
 70
    66
  0
BLOCK_RECORD
  5
1F
102
{ACAD_XDICTIONARY
360
1C06
102
}
330
1
100
AcDbSymbolTableRecord
100
AcDbBlockTableRecord
  2
*Model_Space
340
22
  0
BLOCK_RECORD
  5
1B
330
1
100
AcDbSymbolTableRecord
100
AcDbBlockTableRecord
  2
*Paper_Space
340
1E
  0
BLOCK_RECORD
  5
23
330
1
100
AcDbSymbolTableRecord
100
AcDbBlockTableRecord
  2
*Paper_Space0
340
26
  0
BLOCK_RECORD
  5
D0
330
1
100
AcDbSymbolTableRecord
100
AcDbBlockTableRecord
  2
_DotSmall
340
0
102
{BLKREFS
331
2BAC
331
2BAD
331
2BC7
331
2BC8
331
2EF9
331
2EFA
331
2F02
331
2F03
331
2F0A
331
2F0B
331
2F14
331
2F15
331
2F1C
331
2F1D
331
308E
331
308F
331
30B2
331
30B3
331
30BD
331
30BE
331
30C9
331
30CA
331
30D4
331
30D5
331
31DE
331
31DF
331
31E6
331
31E7
331
31EF
331
31F0
331
31F7
331
31F8
331
327D
331
327E
331
3286
331
3287
331
3587
331
3588
331
3590
331
3591
331
35AC
331
35AD
331
35B4
331
35B5
331
35BD
331
35BE
331
35C6
331
35C7
331
35CF
331
35D0
331
35D9
331
35DA
331
35E2
331
35E3
331
35EB
331
35EC
331
35F4
331
35F5
331
35FD
331
35FE
331
3605
331
3606
331
3629
331
362A
331
3644
331
3645
331
364D
331
364E
331
3656
331
3657
331
365E
331
365F
331
3667
331
3668
331
3671
331
3672
331
367A
331
367B
331
3682
331
3683
331
368C
331
368D
331
36B8
331
36B9
331
36DD
331
36DE
331
36E5
331
36E6
331
36EE
331
36EF
331
36F7
331
36F8
331
3710
331
3711
331
3741
331
3742
331
374A
331
374B
331
3754
331
3755
331
375D
331
375E
331
3765
331
3766
331
376F
331
3770
331
3777
331
3778
331
3780
331
3781
331
3789
331
378A
331
3842
331
3843
331
384B
331
384C
331
3854
331
3855
331
385D
331
385E
102
}
  0
BLOCK_RECORD
  5
D4
330
1
100
AcDbSymbolTableRecord
100
AcDbBlockTableRecord
  2
_Origin2
340
0
  0
BLOCK_RECORD
  5
DA
330
1
100
AcDbSymbolTableRecord
100
AcDbBlockTableRecord
  2
_Open30
340
0
  0
BLOCK_RECORD
  5
385
330
1
100
AcDbSymbolTableRecord
100
AcDbBlockTableRecord
  2
*D4
340
0
  0
BLOCK_RECORD
  5
474
330
1
100
AcDbSymbolTableRecord
100
AcDbBlockTableRecord
  2
*D6
340
0
  0
BLOCK_RECORD
  5
481
330
1
100
AcDbSymbolTableRecord
100
AcDbBlockTableRecord
  2
*D7
340
0
  0
BLOCK_RECORD
  5
587
330
1
100
AcDbSymbolTableRecord
100
AcDbBlockTableRecord
  2
*D8
340
0
  0
BLOCK_RECORD
  5
1BDA
330
1
100
AcDbSymbolTableRecord
100
AcDbBlockTableRecord
  2
_Dot
340
0
  0
BLOCK_RECORD
  5
1BDF
102
{ACAD_XDICTIONARY
360
1BE2
102
}
330
1
100
AcDbSymbolTableRecord
100
AcDbBlockTableRecord
  2
A$C6E975202
340
0
  0
BLOCK_RECORD
  5
1EC6
330
1
100
AcDbSymbolTableRecord
100
AcDbBlockTableRecord
  2
*D11
340
0
  0
BLOCK_RECORD
  5
1EE3
330
1
100
AcDbSymbolTableRecord
100
AcDbBlockTableRecord
  2
*D12
340
0
  0
BLOCK_RECORD
  5
1F2D
330
1
100
AcDbSymbolTableRecord
100
AcDbBlockTableRecord
  2
*D13
340
0
  0
BLOCK_RECORD
  5
1F4B
330
1
100
AcDbSymbolTableRecord
100
AcDbBlockTableRecord
  2
*D14
340
0
  0
BLOCK_RECORD
  5
1F58
330
1
100
AcDbSymbolTableRecord
100
AcDbBlockTableRecord
  2
*D15
340
0
  0
BLOCK_RECORD
  5
1F8A
330
1
100
AcDbSymbolTableRecord
100
AcDbBlockTableRecord
  2
*D16
340
0
  0
BLOCK_RECORD
  5
1FBB
330
1
100
AcDbSymbolTableRecord
100
AcDbBlockTableRecord
  2
*D17
340
0
  0
BLOCK_RECORD
  5
2050
330
1
100
AcDbSymbolTableRecord
100
AcDbBlockTableRecord
  2
*D18
340
0
  0
BLOCK_RECORD
  5
2096
330
1
100
AcDbSymbolTableRecord
100
AcDbBlockTableRecord
  2
*D20
340
0
  0
BLOCK_RECORD
  5
20DA
330
1
100
AcDbSymbolTableRecord
100
AcDbBlockTableRecord
  2
*D21
340
0
  0
BLOCK_RECORD
  5
2C03
330
1
100
AcDbSymbolTableRecord
100
AcDbBlockTableRecord
  2
*D25
340
0
  0
BLOCK_RECORD
  5
2C0F
330
1
100
AcDbSymbolTableRecord
100
AcDbBlockTableRecord
  2
*D26
340
0
  0
BLOCK_RECORD
  5
2C1B
330
1
100
AcDbSymbolTableRecord
100
AcDbBlockTableRecord
  2
*D27
340
0
  0
BLOCK_RECORD
  5
2C27
330
1
100
AcDbSymbolTableRecord
100
AcDbBlockTableRecord
  2
*D28
340
0
  0
BLOCK_RECORD
  5
2C33
330
1
100
AcDbSymbolTableRecord
100
AcDbBlockTableRecord
  2
*D29
340
0
  0
BLOCK_RECORD
  5
2ED5
330
1
100
AcDbSymbolTableRecord
100
AcDbBlockTableRecord
  2
*D36
340
0
  0
BLOCK_RECORD
  5
2EE1
330
1
100
AcDbSymbolTableRecord
100
AcDbBlockTableRecord
  2
*D37
340
0
  0
BLOCK_RECORD
  5
2FFF
330
1
100
AcDbSymbolTableRecord
100
AcDbBlockTableRecord
  2
*D38
340
0
  0
BLOCK_RECORD
  5
300B
330
1
100
AcDbSymbolTableRecord
100
AcDbBlockTableRecord
  2
*D39
340
0
  0
BLOCK_RECORD
  5
3243
330
1
100
AcDbSymbolTableRecord
100
AcDbBlockTableRecord
  2
*D51
340
0
  0
BLOCK_RECORD
  5
3250
330
1
100
AcDbSymbolTableRecord
100
AcDbBlockTableRecord
  2
*D52
340
0
  0
BLOCK_RECORD
  5
328E
330
1
100
AcDbSymbolTableRecord
100
AcDbBlockTableRecord
  2
*D53
340
0
  0
BLOCK_RECORD
  5
32CB
330
1
100
AcDbSymbolTableRecord
100
AcDbBlockTableRecord
  2
*D54
340
0
  0
BLOCK_RECORD
  5
32E1
330
1
100
AcDbSymbolTableRecord
100
AcDbBlockTableRecord
  2
*D55
340
0
  0
BLOCK_RECORD
  5
3328
330
1
100
AcDbSymbolTableRecord
100
AcDbBlockTableRecord
  2
*D56
340
0
  0
BLOCK_RECORD
  5
3336
330
1
100
AcDbSymbolTableRecord
100
AcDbBlockTableRecord
  2
*D57
340
0
  0
BLOCK_RECORD
  5
336A
330
1
100
AcDbSymbolTableRecord
100
AcDbBlockTableRecord
  2
*D58
340
0
  0
BLOCK_RECORD
  5
33AA
330
1
100
AcDbSymbolTableRecord
100
AcDbBlockTableRecord
  2
*D59
340
0
  0
BLOCK_RECORD
  5
341B
330
1
100
AcDbSymbolTableRecord
100
AcDbBlockTableRecord
  2
*D60
340
0
  0
BLOCK_RECORD
  5
3799
330
1
100
AcDbSymbolTableRecord
100
AcDbBlockTableRecord
  2
*D62
340
0
  0
BLOCK_RECORD
  5
37E2
330
1
100
AcDbSymbolTableRecord
100
AcDbBlockTableRecord
  2
*D63
340
0
  0
BLOCK_RECORD
  5
37EF
330
1
100
AcDbSymbolTableRecord
100
AcDbBlockTableRecord
  2
*D64
340
0
  0
BLOCK_RECORD
  5
37FC
330
1
100
AcDbSymbolTableRecord
100
AcDbBlockTableRecord
  2
*D65
340
0
  0
ENDTAB
  0
ENDSEC
  0
SECTION
  2
BLOCKS
  0
BLOCK
  5
20
330
1F
100
AcDbEntity
  8
0
100
AcDbBlockBegin
  2
*Model_Space
 70
     0
 10
0.0
 20
0.0
 30
0.0
  3
*Model_Space
  1

  0
ENDBLK
  5
21
330
1F
100
AcDbEntity
  8
0
100
AcDbBlockEnd
  0
BLOCK
  5
1C
330
1B
100
AcDbEntity
 67
     1
  8
0
100
AcDbBlockBegin
  2
*Paper_Space
 70
     0
 10
0.0
 20
0.0
 30
0.0
  3
*Paper_Space
  1

  0
ENDBLK
  5
1D
330
1B
100
AcDbEntity
 67
     1
  8
0
100
AcDbBlockEnd
  0
BLOCK
  5
24
330
23
100
AcDbEntity
  8
0
100
AcDbBlockBegin
  2
*Paper_Space0
 70
     0
 10
0.0
 20
0.0
 30
0.0
  3
*Paper_Space0
  1

  0
ENDBLK
  5
25
330
23
100
AcDbEntity
  8
0
100
AcDbBlockEnd
  0
BLOCK
  5
D2
330
D0
100
AcDbEntity
  8
0
100
AcDbBlockBegin
  2
_DotSmall
 70
     0
 10
0.0
 20
0.0
 30
0.0
  3
_DotSmall
  1

  0
LWPOLYLINE
  5
D1
330
D0
100
AcDbEntity
  8
0
 62
     0
100
AcDbPolyline
 90
        2
 70
     1
 43
0.5
 10
-0.0625
 20
0.0
 42
1.0
 10
0.0625
 20
0.0
 42
1.0
  0
ENDBLK
  5
D3
330
D0
100
AcDbEntity
  8
0
100
AcDbBlockEnd
  0
BLOCK
  5
D8
330
D4
100
AcDbEntity
  8
0
100
AcDbBlockBegin
  2
_Origin2
 70
     0
 10
0.0
 20
0.0
 30
0.0
  3
_Origin2
  1

  0
CIRCLE
  5
D5
330
D4
100
AcDbEntity
  8
0
 62
     0
370
    -2
100
AcDbCircle
 10
0.0
 20
0.0
 30
0.0
 40
0.5
  0
CIRCLE
  5
D6
330
D4
100
AcDbEntity
  8
0
 62
     0
370
    -2
100
AcDbCircle
 10
0.0
 20
0.0
 30
0.0
 40
0.25
  0
LINE
  5
D7
330
D4
100
AcDbEntity
  8
0
 62
     0
370
    -2
100
AcDbLine
 10
-0.5
 20
0.0
 30
0.0
 11
-1.0
 21
0.0
 31
0.0
  0
ENDBLK
  5
D9
330
D4
100
AcDbEntity
  8
0
100
AcDbBlockEnd
  0
BLOCK
  5
DE
330
DA
100
AcDbEntity
  8
0
100
AcDbBlockBegin
  2
_Open30
 70
     0
 10
0.0
 20
0.0
 30
0.0
  3
_Open30
  1

  0
LINE
  5
DB
330
DA
100
AcDbEntity
  8
0
 62
     0
370
    -2
100
AcDbLine
 10
-1.0
 20
0.26794919
 30
0.0
 11
0.0
 21
0.0
 31
0.0
  0
LINE
  5
DC
330
DA
100
AcDbEntity
  8
0
 62
     0
370
    -2
100
AcDbLine
 10
0.0
 20
0.0
 30
0.0
 11
-1.0
 21
-0.26794919
 31
0.0
  0
LINE
  5
DD
330
DA
100
AcDbEntity
  8
0
 62
     0
370
    -2
100
AcDbLine
 10
0.0
 20
0.0
 30
0.0
 11
-1.0
 21
0.0
 31
0.0
  0
ENDBLK
  5
DF
330
DA
100
AcDbEntity
  8
0
100
AcDbBlockEnd
  0
BLOCK
  5
38F
330
385
100
AcDbEntity
  8
0
100
AcDbBlockBegin
  2
*D4
 70
     1
 10
0.0
 20
0.0
 30
0.0
  3
*D4
  1

  0
LINE
  5
3584
330
385
100
AcDbEntity
  8
0
 62
     0
370
    15
100
AcDbLine
 10
1622.174064690906
 20
1488.86010153411
 30
0.0
 11
1656.021283209659
 21
1488.86010153411
 31
0.0
  0
LINE
  5
3585
330
385
100
AcDbEntity
  8
0
 62
     0
370
    15
100
AcDbLine
 10
1578.31753207244
 20
1648.86010153411
 30
0.0
 11
1656.021283209659
 21
1648.86010153411
 31
0.0
  0
LINE
  5
3586
330
385
100
AcDbEntity
  8
0
 62
     0
370
    15
100
AcDbLine
 10
1656.021283209659
 20
1488.86010153411
 30
0.0
 11
1656.021283209659
 21
1648.86010153411
 31
0.0
  0
INSERT
  5
3587
330
385
100
AcDbEntity
  8
0
 62
     0
370
    15
100
AcDbBlockReference
  2
_DotSmall
 10
1656.021283209659
 20
1488.86010153411
 30
0.0
 41
30.0
 42
30.0
 43
30.0
 50
270.0
  0
INSERT
  5
3588
330
385
100
AcDbEntity
  8
0
 62
     0
370
    15
100
AcDbBlockReference
  2
_DotSmall
 10
1656.021283209659
 20
1648.86010153411
 30
0.0
 41
30.0
 42
30.0
 43
30.0
 50
90.0
  0
MTEXT
  5
3589
330
385
100
AcDbEntity
  8
0
 62
     0
100
AcDbMText
 10
1637.271283209659
 20
1533.410495785237
 30
0.0
 40
25.0
 41
0.0
 71
     5
 72
     1
  1
160
 11
0.0000000000000001
 21
1.0
 31
0.0
 73
     1
 44
1.0
1001
ACAD
1000
MTEXTBEGIN
1070
    73
1070
     1
1070
    44
1040
1.0
1070
    74
1070
     0
1000
MTEXTEND
  0
POINT
  5
358A
330
385
100
AcDbEntity
  8
Defpoints
 62
     0
100
AcDbPoint
 10
1557.174064690905
 20
1488.86010153411
 30
0.0
  0
POINT
  5
358B
330
385
100
AcDbEntity
  8
Defpoints
 62
     0
100
AcDbPoint
 10
1513.31753207244
 20
1648.86010153411
 30
0.0
  0
POINT
  5
358C
330
385
100
AcDbEntity
  8
Defpoints
 62
     0
100
AcDbPoint
 10
1656.021283209659
 20
1648.86010153411
 30
0.0
  0
ENDBLK
  5
390
330
385
100
AcDbEntity
  8
0
100
AcDbBlockEnd
  0
BLOCK
  5
47E
330
474
100
AcDbEntity
  8
0
100
AcDbBlockBegin
  2
*D6
 70
     1
 10
0.0
 20
0.0
 30
0.0
  3
*D6
  1

  0
LINE
  5
373E
330
474
100
AcDbEntity
  8
0
 62
     0
370
    15
100
AcDbLine
 10
1579.059094235713
 20
543.2661477511847
 30
0.0
 11
1579.059094235713
 21
486.8716730531696
 31
0.0
  0
LINE
  5
373F
330
474
100
AcDbEntity
  8
0
 62
     0
370
    15
100
AcDbLine
 10
1420.059094235712
 20
543.2661477511849
 30
0.0
 11
1420.059094235712
 21
486.8716730531696
 31
0.0
  0
LINE
  5
3740
330
474
100
AcDbEntity
  8
0
 62
     0
370
    15
100
AcDbLine
 10
1579.059094235713
 20
486.8716730531696
 30
0.0
 11
1420.059094235712
 21
486.8716730531696
 31
0.0
  0
INSERT
  5
3741
330
474
100
AcDbEntity
  8
0
 62
     0
370
    15
100
AcDbBlockReference
  2
_DotSmall
 10
1579.059094235713
 20
486.8716730531696
 30
0.0
 41
30.0
 42
30.0
 43
30.0
  0
INSERT
  5
3742
330
474
100
AcDbEntity
  8
0
 62
     0
370
    15
100
AcDbBlockReference
  2
_DotSmall
 10
1420.059094235712
 20
486.8716730531696
 30
0.0
 41
30.0
 42
30.0
 43
30.0
 50
180.0
  0
MTEXT
  5
3743
330
474
100
AcDbEntity
  8
0
 62
     0
100
AcDbMText
 10
1499.559094235713
 20
505.6216730531696
 30
0.0
 40
25.0
 41
0.0
 71
     5
 72
     1
  1
159
 73
     1
 44
1.0
1001
ACAD
1000
MTEXTBEGIN
1070
    73
1070
     1
1070
    44
1040
1.0
1070
    74
1070
     0
1000
MTEXTEND
  0
POINT
  5
3744
330
474
100
AcDbEntity
  8
Defpoints
 62
     0
100
AcDbPoint
 10
1579.059094235713
 20
608.2661477511846
 30
0.0
  0
POINT
  5
3745
330
474
100
AcDbEntity
  8
Defpoints
 62
     0
100
AcDbPoint
 10
1420.059094235712
 20
608.2661477511849
 30
0.0
  0
POINT
  5
3746
330
474
100
AcDbEntity
  8
Defpoints
 62
     0
100
AcDbPoint
 10
1420.059094235712
 20
486.8716730531696
 30
0.0
  0
ENDBLK
  5
47F
330
474
100
AcDbEntity
  8
0
100
AcDbBlockEnd
  0
BLOCK
  5
48B
330
481
100
AcDbEntity
  8
0
100
AcDbBlockBegin
  2
*D7
 70
     1
 10
0.0
 20
0.0
 30
0.0
  3
*D7
  1

  0
LINE
  5
3747
330
481
100
AcDbEntity
  8
0
 62
     0
370
    15
100
AcDbLine
 10
1590.059094235713
 20
680.2661477511847
 30
0.0
 11
1590.059094235713
 21
717.4191722891564
 31
0.0
  0
LINE
  5
3748
330
481
100
AcDbEntity
  8
0
 62
     0
370
    15
100
AcDbLine
 10
1409.059094235713
 20
680.2661477511848
 30
0.0
 11
1409.059094235713
 21
717.4191722891564
 31
0.0
  0
LINE
  5
3749
330
481
100
AcDbEntity
  8
0
 62
     0
370
    15
100
AcDbLine
 10
1590.059094235713
 20
717.4191722891564
 30
0.0
 11
1409.059094235713
 21
717.4191722891564
 31
0.0
  0
INSERT
  5
374A
330
481
100
AcDbEntity
  8
0
 62
     0
370
    15
100
AcDbBlockReference
  2
_DotSmall
 10
1590.059094235713
 20
717.4191722891564
 30
0.0
 41
30.0
 42
30.0
 43
30.0
  0
INSERT
  5
374B
330
481
100
AcDbEntity
  8
0
 62
     0
370
    15
100
AcDbBlockReference
  2
_DotSmall
 10
1409.059094235713
 20
717.4191722891564
 30
0.0
 41
30.0
 42
30.0
 43
30.0
 50
180.0
  0
MTEXT
  5
374C
330
481
100
AcDbEntity
  8
0
 62
     0
100
AcDbMText
 10
1499.559094235713
 20
736.1691722891564
 30
0.0
 40
25.0
 41
0.0
 71
     5
 72
     1
  1
181
 73
     1
 44
1.0
1001
ACAD
1000
MTEXTBEGIN
1070
    73
1070
     1
1070
    44
1040
1.0
1070
    74
1070
     0
1000
MTEXTEND
  0
POINT
  5
374D
330
481
100
AcDbEntity
  8
Defpoints
 62
     0
100
AcDbPoint
 10
1590.059094235713
 20
615.2661477511847
 30
0.0
  0
POINT
  5
374E
330
481
100
AcDbEntity
  8
Defpoints
 62
     0
100
AcDbPoint
 10
1409.059094235713
 20
615.2661477511847
 30
0.0
  0
POINT
  5
374F
330
481
100
AcDbEntity
  8
Defpoints
 62
     0
100
AcDbPoint
 10
1409.059094235713
 20
717.4191722891564
 30
0.0
  0
ENDBLK
  5
48C
330
481
100
AcDbEntity
  8
0
100
AcDbBlockEnd
  0
BLOCK
  5
593
330
587
100
AcDbEntity
  8
0
100
AcDbBlockBegin
  2
*D8
 70
     1
 10
0.0
 20
0.0
 30
0.0
  3
*D8
  1

  0
LINE
  5
35A8
330
587
100
AcDbEntity
  8
0
 62
     0
370
    15
100
AcDbLine
 10
1352.814030259614
 20
1633.86010153411
 30
0.0
 11
1341.786533664072
 21
1633.86010153411
 31
0.0
  0
LINE
  5
35A9
330
587
100
AcDbEntity
  8
0
 62
     0
370
    15
100
AcDbLine
 10
1369.559094235713
 20
1648.86010153411
 30
0.0
 11
1341.786533664072
 21
1648.86010153411
 31
0.0
  0
LINE
  5
35AA
330
587
100
AcDbEntity
  8
0
 62
     0
370
    15
100
AcDbLine
 10
1341.786533664072
 20
1633.86010153411
 30
0.0
 11
1341.786533664072
 21
1648.86010153411
 31
0.0
  0
MTEXT
  5
35AB
330
587
100
AcDbEntity
  8
0
 62
     0
100
AcDbMText
 10
1314.048151241264
 20
1624.338644820605
 30
0.0
 40
25.0
 41
0.0
 71
     5
 72
     1
  1
16
 11
0.0000000000000001
 21
1.0
 31
0.0
 73
     1
 44
1.0
1001
ACAD
1000
MTEXTBEGIN
1070
    73
1070
     1
1070
    44
1040
1.0
1070
    74
1070
     0
1000
MTEXTEND
  0
INSERT
  5
35AC
330
587
100
AcDbEntity
  8
0
 62
     0
370
    15
100
AcDbBlockReference
  2
_DotSmall
 10
1341.786533664072
 20
1633.86010153411
 30
0.0
 41
30.0
 42
30.0
 43
30.0
 50
270.0
  0
INSERT
  5
35AD
330
587
100
AcDbEntity
  8
0
 62
     0
370
    15
100
AcDbBlockReference
  2
_DotSmall
 10
1341.786533664072
 20
1648.86010153411
 30
0.0
 41
30.0
 42
30.0
 43
30.0
 50
90.0
  0
POINT
  5
35AE
330
587
100
AcDbEntity
  8
Defpoints
 62
     0
100
AcDbPoint
 10
1417.814030259615
 20
1633.86010153411
 30
0.0
  0
POINT
  5
35AF
330
587
100
AcDbEntity
  8
Defpoints
 62
     0
100
AcDbPoint
 10
1434.559094235713
 20
1648.86010153411
 30
0.0
  0
POINT
  5
35B0
330
587
100
AcDbEntity
  8
Defpoints
 62
     0
100
AcDbPoint
 10
1341.786533664072
 20
1648.86010153411
 30
0.0
  0
ENDBLK
  5
594
330
587
100
AcDbEntity
  8
0
100
AcDbBlockEnd
  0
BLOCK
  5
1BDB
330
1BDA
100
AcDbEntity
  8
0
100
AcDbBlockBegin
  2
_Dot
 70
     0
 10
0.0
 20
0.0
 30
0.0
  3
_Dot
  1

  0
LWPOLYLINE
  5
1BDC
330
1BDA
100
AcDbEntity
  8
0
 62
     0
100
AcDbPolyline
 90
        2
 70
     1
 43
0.5
 10
-0.25
 20
0.0
 42
1.0
 10
0.25
 20
0.0
 42
1.0
  0
LINE
  5
1BDD
330
1BDA
100
AcDbEntity
  8
0
 62
     0
370
    -2
100
AcDbLine
 10
-0.5
 20
0.0
 30
0.0
 11
-1.0
 21
0.0
 31
0.0
  0
ENDBLK
  5
1BDE
330
1BDA
100
AcDbEntity
  8
0
100
AcDbBlockEnd
  0
BLOCK
  5
1BE4
330
1BDF
100
AcDbEntity
  8
0
100
AcDbBlockBegin
  2
A$C6E975202
 70
     0
 10
0.0
 20
0.0
 30
0.0
  3
A$C6E975202
  1

  0
TEXT
  5
1BE0
330
1BDF
100
AcDbEntity
  8
寸法
 62
     0
100
AcDbText
 10
-0.0000081959879021
 20
873.0585266975676
 30
0.0
 40
60.0
  1
36φ
 11
-0.0000081959879026
 21
865.0585266975676
 31
0.0
100
AcDbText
 73
     1
  0
TEXT
  5
1BE1
330
1BDF
100
AcDbEntity
  8
寸法
 62
     0
100
AcDbText
 10
242.8378485608664
 20
0.0000025042498537
 30
0.0
 40
55.0
  1
PRS800-520GRM-OFR
 11
242.8378485608664
 21
-7.333330829083479
 31
0.0
100
AcDbText
 73
     1
  0
ENDBLK
  5
1BE5
330
1BDF
100
AcDbEntity
  8
0
100
AcDbBlockEnd
  0
BLOCK
  5
1ED0
330
1EC6
100
AcDbEntity
  8
0
 62
     3
100
AcDbBlockBegin
  2
*D11
 70
     1
 10
0.0
 20
0.0
 30
0.0
  3
*D11
  1

  0
LINE
  5
35B1
330
1EC6
100
AcDbEntity
  8
実形
 62
     0
370
    15
100
AcDbLine
 10
1846.921220954568
 20
1683.86010153411
 30
0.0
 11
2046.727536367237
 21
1683.86010153411
 31
0.0
  0
LINE
  5
35B2
330
1EC6
100
AcDbEntity
  8
実形
 62
     0
370
    15
100
AcDbLine
 10
1846.921220954568
 20
1143.86010153411
 30
0.0
 11
2046.727536367236
 21
1143.86010153411
 31
0.0
  0
LINE
  5
35B3
330
1EC6
100
AcDbEntity
  8
実形
 62
     0
370
    15
100
AcDbLine
 10
2046.727536367237
 20
1683.86010153411
 30
0.0
 11
2046.727536367236
 21
1143.86010153411
 31
0.0
  0
INSERT
  5
35B4
330
1EC6
100
AcDbEntity
  8
実形
 62
     0
370
    15
100
AcDbBlockReference
  2
_DotSmall
 10
2046.727536367237
 20
1683.86010153411
 30
0.0
 41
30.0
 42
30.0
 43
30.0
 50
90.0
  0
INSERT
  5
35B5
330
1EC6
100
AcDbEntity
  8
実形
 62
     0
370
    15
100
AcDbBlockReference
  2
_DotSmall
 10
2046.727536367236
 20
1143.86010153411
 30
0.0
 41
30.0
 42
30.0
 43
30.0
 50
270.0
  0
MTEXT
  5
35B6
330
1EC6
100
AcDbEntity
  8
実形
 62
     0
100
AcDbMText
 10
2027.977536367236
 20
1413.86010153411
 30
0.0
 40
25.0
 41
0.0
 71
     5
 72
     1
  1
540
 11
0.0000000000000001
 21
1.0
 31
0.0
 73
     1
 44
1.0
1001
ACAD
1000
MTEXTBEGIN
1070
    73
1070
     1
1070
    44
1040
1.0
1070
    74
1070
     0
1000
MTEXTEND
  0
POINT
  5
35B7
330
1EC6
100
AcDbEntity
  8
Defpoints
 62
     0
100
AcDbPoint
 10
1781.921220954568
 20
1683.86010153411
 30
0.0
  0
POINT
  5
35B8
330
1EC6
100
AcDbEntity
  8
Defpoints
 62
     0
100
AcDbPoint
 10
1781.921220954568
 20
1143.86010153411
 30
0.0
  0
POINT
  5
35B9
330
1EC6
100
AcDbEntity
  8
Defpoints
 62
     0
100
AcDbPoint
 10
2046.727536367236
 20
1143.86010153411
 30
0.0
  0
ENDBLK
  5
1ED1
330
1EC6
100
AcDbEntity
  8
0
 62
     3
100
AcDbBlockEnd
  0
BLOCK
  5
1EED
330
1EE3
100
AcDbEntity
  8
0
 62
     3
100
AcDbBlockBegin
  2
*D12
 70
     1
 10
0.0
 20
0.0
 30
0.0
  3
*D12
  1

  0
LINE
  5
35BA
330
1EE3
100
AcDbEntity
  8
実形
 62
     0
370
    15
100
AcDbLine
 10
1846.921220954568
 20
1648.86010153411
 30
0.0
 11
1923.161157486866
 21
1648.86010153411
 31
0.0
  0
LINE
  5
35BB
330
1EE3
100
AcDbEntity
  8
実形
 62
     0
370
    15
100
AcDbLine
 10
1846.921220954568
 20
1568.86010153411
 30
0.0
 11
1923.161157486866
 21
1568.86010153411
 31
0.0
  0
LINE
  5
35BC
330
1EE3
100
AcDbEntity
  8
実形
 62
     0
370
    15
100
AcDbLine
 10
1923.161157486866
 20
1648.86010153411
 30
0.0
 11
1923.161157486866
 21
1568.86010153411
 31
0.0
  0
INSERT
  5
35BD
330
1EE3
100
AcDbEntity
  8
実形
 62
     0
370
    15
100
AcDbBlockReference
  2
_DotSmall
 10
1923.161157486866
 20
1648.86010153411
 30
0.0
 41
30.0
 42
30.0
 43
30.0
 50
90.0
  0
INSERT
  5
35BE
330
1EE3
100
AcDbEntity
  8
実形
 62
     0
370
    15
100
AcDbBlockReference
  2
_DotSmall
 10
1923.161157486866
 20
1568.86010153411
 30
0.0
 41
30.0
 42
30.0
 43
30.0
 50
270.0
  0
MTEXT
  5
35BF
330
1EE3
100
AcDbEntity
  8
実形
 62
     0
100
AcDbMText
 10
1904.411157486865
 20
1608.860101534111
 30
0.0
 40
25.0
 41
0.0
 71
     5
 72
     1
  1
80
 11
0.0000000000000001
 21
1.0
 31
0.0
 73
     1
 44
1.0
1001
ACAD
1000
MTEXTBEGIN
1070
    73
1070
     1
1070
    44
1040
1.0
1070
    74
1070
     0
1000
MTEXTEND
  0
POINT
  5
35C0
330
1EE3
100
AcDbEntity
  8
Defpoints
 62
     0
100
AcDbPoint
 10
1781.921220954568
 20
1648.86010153411
 30
0.0
  0
POINT
  5
35C1
330
1EE3
100
AcDbEntity
  8
Defpoints
 62
     0
100
AcDbPoint
 10
1781.921220954568
 20
1568.86010153411
 30
0.0
  0
POINT
  5
35C2
330
1EE3
100
AcDbEntity
  8
Defpoints
 62
     0
100
AcDbPoint
 10
1923.161157486866
 20
1568.86010153411
 30
0.0
  0
ENDBLK
  5
1EEE
330
1EE3
100
AcDbEntity
  8
0
 62
     3
100
AcDbBlockEnd
  0
BLOCK
  5
1F37
330
1F2D
100
AcDbEntity
  8
0
 62
     3
100
AcDbBlockBegin
  2
*D13
 70
     1
 10
0.0
 20
0.0
 30
0.0
  3
*D13
  1

  0
LINE
  5
35C3
330
1F2D
100
AcDbEntity
  8
実形
 62
     0
370
    15
100
AcDbLine
 10
1846.921220954568
 20
1568.86010153411
 30
0.0
 11
1923.161157486866
 21
1568.86010153411
 31
0.0
  0
LINE
  5
35C4
330
1F2D
100
AcDbEntity
  8
実形
 62
     0
370
    15
100
AcDbLine
 10
1846.921220954568
 20
1193.86010153411
 30
0.0
 11
1923.161157486866
 21
1193.86010153411
 31
0.0
  0
LINE
  5
35C5
330
1F2D
100
AcDbEntity
  8
実形
 62
     0
370
    15
100
AcDbLine
 10
1923.161157486866
 20
1568.86010153411
 30
0.0
 11
1923.161157486866
 21
1193.86010153411
 31
0.0
  0
INSERT
  5
35C6
330
1F2D
100
AcDbEntity
  8
実形
 62
     0
370
    15
100
AcDbBlockReference
  2
_DotSmall
 10
1923.161157486866
 20
1568.86010153411
 30
0.0
 41
30.0
 42
30.0
 43
30.0
 50
90.0
  0
INSERT
  5
35C7
330
1F2D
100
AcDbEntity
  8
実形
 62
     0
370
    15
100
AcDbBlockReference
  2
_DotSmall
 10
1923.161157486866
 20
1193.86010153411
 30
0.0
 41
30.0
 42
30.0
 43
30.0
 50
270.0
  0
MTEXT
  5
35C8
330
1F2D
100
AcDbEntity
  8
実形
 62
     0
100
AcDbMText
 10
1904.411157486865
 20
1381.360101534111
 30
0.0
 40
25.0
 41
0.0
 71
     5
 72
     1
  1
375
 11
0.0000000000000001
 21
1.0
 31
0.0
 73
     1
 44
1.0
1001
ACAD
1000
MTEXTBEGIN
1070
    73
1070
     1
1070
    44
1040
1.0
1070
    74
1070
     0
1000
MTEXTEND
  0
POINT
  5
35C9
330
1F2D
100
AcDbEntity
  8
Defpoints
 62
     0
100
AcDbPoint
 10
1781.921220954568
 20
1568.86010153411
 30
0.0
  0
POINT
  5
35CA
330
1F2D
100
AcDbEntity
  8
Defpoints
 62
     0
100
AcDbPoint
 10
1781.921220954568
 20
1193.86010153411
 30
0.0
  0
POINT
  5
35CB
330
1F2D
100
AcDbEntity
  8
Defpoints
 62
     0
100
AcDbPoint
 10
1923.161157486866
 20
1193.86010153411
 30
0.0
  0
ENDBLK
  5
1F38
330
1F2D
100
AcDbEntity
  8
0
 62
     3
100
AcDbBlockEnd
  0
BLOCK
  5
1F55
330
1F4B
100
AcDbEntity
  8
0
 62
     3
100
AcDbBlockBegin
  2
*D14
 70
     1
 10
0.0
 20
0.0
 30
0.0
  3
*D14
  1

  0
LINE
  5
35CC
330
1F4B
100
AcDbEntity
  8
実形
 62
     0
370
    15
100
AcDbLine
 10
1846.921220954568
 20
1648.86010153411
 30
0.0
 11
1980.103534687268
 21
1648.86010153411
 31
0.0
  0
LINE
  5
35CD
330
1F4B
100
AcDbEntity
  8
実形
 62
     0
370
    15
100
AcDbLine
 10
1846.921220954568
 20
1178.86010153411
 30
0.0
 11
1980.103534687268
 21
1178.86010153411
 31
0.0
  0
LINE
  5
35CE
330
1F4B
100
AcDbEntity
  8
実形
 62
     0
370
    15
100
AcDbLine
 10
1980.103534687268
 20
1648.86010153411
 30
0.0
 11
1980.103534687268
 21
1178.86010153411
 31
0.0
  0
INSERT
  5
35CF
330
1F4B
100
AcDbEntity
  8
実形
 62
     0
370
    15
100
AcDbBlockReference
  2
_DotSmall
 10
1980.103534687268
 20
1648.86010153411
 30
0.0
 41
30.0
 42
30.0
 43
30.0
 50
90.0
  0
INSERT
  5
35D0
330
1F4B
100
AcDbEntity
  8
実形
 62
     0
370
    15
100
AcDbBlockReference
  2
_DotSmall
 10
1980.103534687268
 20
1178.86010153411
 30
0.0
 41
30.0
 42
30.0
 43
30.0
 50
270.0
  0
MTEXT
  5
35D1
330
1F4B
100
AcDbEntity
  8
実形
 62
     0
100
AcDbMText
 10
1961.353534687267
 20
1413.86010153411
 30
0.0
 40
25.0
 41
0.0
 71
     5
 72
     1
  1
470
 11
0.0000000000000001
 21
1.0
 31
0.0
 73
     1
 44
1.0
1001
ACAD
1000
MTEXTBEGIN
1070
    73
1070
     1
1070
    44
1040
1.0
1070
    74
1070
     0
1000
MTEXTEND
  0
POINT
  5
35D2
330
1F4B
100
AcDbEntity
  8
Defpoints
 62
     0
100
AcDbPoint
 10
1781.921220954568
 20
1648.86010153411
 30
0.0
  0
POINT
  5
35D3
330
1F4B
100
AcDbEntity
  8
Defpoints
 62
     0
100
AcDbPoint
 10
1781.921220954568
 20
1178.86010153411
 30
0.0
  0
POINT
  5
35D4
330
1F4B
100
AcDbEntity
  8
Defpoints
 62
     0
100
AcDbPoint
 10
1980.103534687268
 20
1178.86010153411
 30
0.0
  0
ENDBLK
  5
1F56
330
1F4B
100
AcDbEntity
  8
0
 62
     3
100
AcDbBlockEnd
  0
BLOCK
  5
1F62
330
1F58
100
AcDbEntity
  8
0
 62
     3
100
AcDbBlockBegin
  2
*D15
 70
     1
 10
0.0
 20
0.0
 30
0.0
  3
*D15
  1

  0
LINE
  5
35D5
330
1F58
100
AcDbEntity
  8
実形
 62
     0
370
    15
100
AcDbLine
 10
1846.921220954568
 20
1683.86010153411
 30
0.0
 11
1980.103534687268
 21
1683.86010153411
 31
0.0
  0
LINE
  5
35D6
330
1F58
100
AcDbEntity
  8
実形
 62
     0
370
    15
100
AcDbLine
 10
1846.921220954568
 20
1143.86010153411
 30
0.0
 11
1980.103534687268
 21
1143.86010153411
 31
0.0
  0
LINE
  5
35D7
330
1F58
100
AcDbEntity
  8
実形
 62
     0
370
    15
100
AcDbLine
 10
1980.103534687268
 20
1683.86010153411
 30
0.0
 11
1980.103534687268
 21
1143.86010153411
 31
0.0
  0
MTEXT
  5
35D8
330
1F58
100
AcDbEntity
  8
実形
 62
     0
100
AcDbMText
 10
1957.281897386961
 20
1206.813866723811
 30
0.0
 40
25.0
 41
0.0
 71
     5
 72
     1
  1
35
 11
0.0000000000000001
 21
1.0
 31
0.0
 73
     1
 44
1.0
1001
ACAD
1000
MTEXTBEGIN
1070
    73
1070
     1
1070
    44
1040
1.0
1070
    74
1070
     0
1000
MTEXTEND
  0
INSERT
  5
35D9
330
1F58
100
AcDbEntity
  8
実形
 62
     0
370
    15
100
AcDbBlockReference
  2
_DotSmall
 10
1980.103534687268
 20
1683.86010153411
 30
0.0
 41
30.0
 42
30.0
 43
30.0
 50
90.0
  0
INSERT
  5
35DA
330
1F58
100
AcDbEntity
  8
実形
 62
     0
370
    15
100
AcDbBlockReference
  2
_DotSmall
 10
1980.103534687268
 20
1143.86010153411
 30
0.0
 41
30.0
 42
30.0
 43
30.0
 50
270.0
  0
POINT
  5
35DB
330
1F58
100
AcDbEntity
  8
Defpoints
 62
     0
100
AcDbPoint
 10
1781.921220954568
 20
1683.86010153411
 30
0.0
  0
POINT
  5
35DC
330
1F58
100
AcDbEntity
  8
Defpoints
 62
     0
100
AcDbPoint
 10
1781.921220954568
 20
1143.86010153411
 30
0.0
  0
POINT
  5
35DD
330
1F58
100
AcDbEntity
  8
Defpoints
 62
     0
100
AcDbPoint
 10
1980.103534687268
 20
1143.86010153411
 30
0.0
  0
ENDBLK
  5
1F63
330
1F58
100
AcDbEntity
  8
0
 62
     3
100
AcDbBlockEnd
  0
BLOCK
  5
1F94
330
1F8A
100
AcDbEntity
  8
0
 62
     3
100
AcDbBlockBegin
  2
*D16
 70
     1
 10
0.0
 20
0.0
 30
0.0
  3
*D16
  1

  0
LINE
  5
35DE
330
1F8A
100
AcDbEntity
  8
実形
 62
     0
370
    15
100
AcDbLine
 10
1846.921220954568
 20
1683.86010153411
 30
0.0
 11
1980.103534687268
 21
1683.86010153411
 31
0.0
  0
LINE
  5
35DF
330
1F8A
100
AcDbEntity
  8
実形
 62
     0
370
    15
100
AcDbLine
 10
1846.921220954568
 20
1143.86010153411
 30
0.0
 11
1980.103534687268
 21
1143.86010153411
 31
0.0
  0
LINE
  5
35E0
330
1F8A
100
AcDbEntity
  8
実形
 62
     0
370
    15
100
AcDbLine
 10
1980.103534687268
 20
1683.86010153411
 30
0.0
 11
1980.103534687268
 21
1143.86010153411
 31
0.0
  0
MTEXT
  5
35E1
330
1F8A
100
AcDbEntity
  8
実形
 62
     0
100
AcDbMText
 10
1961.662633299411
 20
1622.466159842104
 30
0.0
 40
25.0
 41
0.0
 71
     5
 72
     1
  1
35
 11
0.0000000000000001
 21
1.0
 31
0.0
 73
     1
 44
1.0
1001
ACAD
1000
MTEXTBEGIN
1070
    73
1070
     1
1070
    44
1040
1.0
1070
    74
1070
     0
1000
MTEXTEND
  0
INSERT
  5
35E2
330
1F8A
100
AcDbEntity
  8
実形
 62
     0
370
    15
100
AcDbBlockReference
  2
_DotSmall
 10
1980.103534687268
 20
1683.86010153411
 30
0.0
 41
30.0
 42
30.0
 43
30.0
 50
90.0
  0
INSERT
  5
35E3
330
1F8A
100
AcDbEntity
  8
実形
 62
     0
370
    15
100
AcDbBlockReference
  2
_DotSmall
 10
1980.103534687268
 20
1143.86010153411
 30
0.0
 41
30.0
 42
30.0
 43
30.0
 50
270.0
  0
POINT
  5
35E4
330
1F8A
100
AcDbEntity
  8
Defpoints
 62
     0
100
AcDbPoint
 10
1781.921220954568
 20
1683.86010153411
 30
0.0
  0
POINT
  5
35E5
330
1F8A
100
AcDbEntity
  8
Defpoints
 62
     0
100
AcDbPoint
 10
1781.921220954568
 20
1143.86010153411
 30
0.0
  0
POINT
  5
35E6
330
1F8A
100
AcDbEntity
  8
Defpoints
 62
     0
100
AcDbPoint
 10
1980.103534687268
 20
1143.86010153411
 30
0.0
  0
ENDBLK
  5
1F95
330
1F8A
100
AcDbEntity
  8
0
 62
     3
100
AcDbBlockEnd
  0
BLOCK
  5
1FC5
330
1FBB
100
AcDbEntity
  8
0
 62
     3
100
AcDbBlockBegin
  2
*D17
 70
     1
 10
0.0
 20
0.0
 30
0.0
  3
*D17
  1

  0
LINE
  5
35E7
330
1FBB
100
AcDbEntity
  8
実形
 62
     0
370
    15
100
AcDbLine
 10
1846.921220954568
 20
1648.86010153411
 30
0.0
 11
1923.161157486866
 21
1648.86010153411
 31
0.0
  0
LINE
  5
35E8
330
1FBB
100
AcDbEntity
  8
実形
 62
     0
370
    15
100
AcDbLine
 10
1846.921220954568
 20
1178.86010153411
 30
0.0
 11
1923.161157486866
 21
1178.86010153411
 31
0.0
  0
LINE
  5
35E9
330
1FBB
100
AcDbEntity
  8
実形
 62
     0
370
    15
100
AcDbLine
 10
1923.161157486866
 20
1648.86010153411
 30
0.0
 11
1923.161157486866
 21
1178.86010153411
 31
0.0
  0
MTEXT
  5
35EA
330
1FBB
100
AcDbEntity
  8
実形
 62
     0
100
AcDbMText
 10
1904.978941974123
 20
1217.15528965231
 30
0.0
 40
25.0
 41
0.0
 71
     5
 72
     1
  1
15
 11
0.0000000000000001
 21
1.0
 31
0.0
 73
     1
 44
1.0
1001
ACAD
1000
MTEXTBEGIN
1070
    73
1070
     1
1070
    44
1040
1.0
1070
    74
1070
     0
1000
MTEXTEND
  0
INSERT
  5
35EB
330
1FBB
100
AcDbEntity
  8
実形
 62
     0
370
    15
100
AcDbBlockReference
  2
_DotSmall
 10
1923.161157486866
 20
1648.86010153411
 30
0.0
 41
30.0
 42
30.0
 43
30.0
 50
90.0
  0
INSERT
  5
35EC
330
1FBB
100
AcDbEntity
  8
実形
 62
     0
370
    15
100
AcDbBlockReference
  2
_DotSmall
 10
1923.161157486866
 20
1178.86010153411
 30
0.0
 41
30.0
 42
30.0
 43
30.0
 50
270.0
  0
POINT
  5
35ED
330
1FBB
100
AcDbEntity
  8
Defpoints
 62
     0
100
AcDbPoint
 10
1781.921220954568
 20
1648.86010153411
 30
0.0
  0
POINT
  5
35EE
330
1FBB
100
AcDbEntity
  8
Defpoints
 62
     0
100
AcDbPoint
 10
1781.921220954568
 20
1178.86010153411
 30
0.0
  0
POINT
  5
35EF
330
1FBB
100
AcDbEntity
  8
Defpoints
 62
     0
100
AcDbPoint
 10
1923.161157486866
 20
1178.86010153411
 30
0.0
  0
ENDBLK
  5
1FC6
330
1FBB
100
AcDbEntity
  8
0
 62
     3
100
AcDbBlockEnd
  0
BLOCK
  5
205A
330
2050
100
AcDbEntity
  8
0
 62
     3
100
AcDbBlockBegin
  2
*D18
 70
     1
 10
0.0
 20
0.0
 30
0.0
  3
*D18
  1

  0
LINE
  5
35F0
330
2050
100
AcDbEntity
  8
実形
 62
     0
370
    15
100
AcDbLine
 10
1254.559094235713
 20
1090.833394069355
 30
0.0
 11
1254.559094235713
 21
1036.807958926578
 31
0.0
  0
LINE
  5
35F1
330
2050
100
AcDbEntity
  8
実形
 62
     0
370
    15
100
AcDbLine
 10
1744.559094235713
 20
1090.833394069355
 30
0.0
 11
1744.559094235713
 21
1036.807958926578
 31
0.0
  0
LINE
  5
35F2
330
2050
100
AcDbEntity
  8
実形
 62
     0
370
    15
100
AcDbLine
 10
1254.559094235713
 20
1036.807958926578
 30
0.0
 11
1744.559094235713
 21
1036.807958926578
 31
0.0
  0
MTEXT
  5
35F3
330
2050
100
AcDbEntity
  8
実形
 62
     0
100
AcDbMText
 10
1282.212949148452
 20
1057.436532268721
 30
0.0
 40
25.0
 41
0.0
 71
     5
 72
     1
  1
15
 73
     1
 44
1.0
1001
ACAD
1000
MTEXTBEGIN
1070
    73
1070
     1
1070
    44
1040
1.0
1070
    74
1070
     0
1000
MTEXTEND
  0
INSERT
  5
35F4
330
2050
100
AcDbEntity
  8
実形
 62
     0
370
    15
100
AcDbBlockReference
  2
_DotSmall
 10
1254.559094235713
 20
1036.807958926578
 30
0.0
 41
30.0
 42
30.0
 43
30.0
 50
180.0
  0
INSERT
  5
35F5
330
2050
100
AcDbEntity
  8
実形
 62
     0
370
    15
100
AcDbBlockReference
  2
_DotSmall
 10
1744.559094235713
 20
1036.807958926578
 30
0.0
 41
30.0
 42
30.0
 43
30.0
  0
POINT
  5
35F6
330
2050
100
AcDbEntity
  8
Defpoints
 62
     0
100
AcDbPoint
 10
1254.559094235713
 20
1155.833394069355
 30
0.0
  0
POINT
  5
35F7
330
2050
100
AcDbEntity
  8
Defpoints
 62
     0
100
AcDbPoint
 10
1744.559094235713
 20
1155.833394069355
 30
0.0
  0
POINT
  5
35F8
330
2050
100
AcDbEntity
  8
Defpoints
 62
     0
100
AcDbPoint
 10
1744.559094235713
 20
1036.807958926578
 30
0.0
  0
ENDBLK
  5
205B
330
2050
100
AcDbEntity
  8
0
 62
     3
100
AcDbBlockEnd
  0
BLOCK
  5
20A0
330
2096
100
AcDbEntity
  8
0
 62
     3
100
AcDbBlockBegin
  2
*D20
 70
     1
 10
0.0
 20
0.0
 30
0.0
  3
*D20
  1

  0
LINE
  5
35F9
330
2096
100
AcDbEntity
  8
実形
 62
     0
370
    15
100
AcDbLine
 10
1239.559094235713
 20
1090.833394069355
 30
0.0
 11
1239.559094235713
 21
1036.807958926578
 31
0.0
  0
LINE
  5
35FA
330
2096
100
AcDbEntity
  8
実形
 62
     0
370
    15
100
AcDbLine
 10
1759.559094235713
 20
1090.833394069355
 30
0.0
 11
1759.559094235713
 21
1036.807958926578
 31
0.0
  0
LINE
  5
35FB
330
2096
100
AcDbEntity
  8
実形
 62
     0
370
    15
100
AcDbLine
 10
1239.559094235713
 20
1036.807958926578
 30
0.0
 11
1759.559094235713
 21
1036.807958926578
 31
0.0
  0
MTEXT
  5
35FC
330
2096
100
AcDbEntity
  8
実形
 62
     0
100
AcDbMText
 10
1711.653110495003
 20
1055.557958926578
 30
0.0
 40
25.0
 41
0.0
 71
     5
 72
     1
  1
15
 73
     1
 44
1.0
1001
ACAD
1000
MTEXTBEGIN
1070
    73
1070
     1
1070
    44
1040
1.0
1070
    74
1070
     0
1000
MTEXTEND
  0
INSERT
  5
35FD
330
2096
100
AcDbEntity
  8
実形
 62
     0
370
    15
100
AcDbBlockReference
  2
_DotSmall
 10
1239.559094235713
 20
1036.807958926578
 30
0.0
 41
30.0
 42
30.0
 43
30.0
 50
180.0
  0
INSERT
  5
35FE
330
2096
100
AcDbEntity
  8
実形
 62
     0
370
    15
100
AcDbBlockReference
  2
_DotSmall
 10
1759.559094235713
 20
1036.807958926578
 30
0.0
 41
30.0
 42
30.0
 43
30.0
  0
POINT
  5
35FF
330
2096
100
AcDbEntity
  8
Defpoints
 62
     0
100
AcDbPoint
 10
1239.559094235713
 20
1155.833394069355
 30
0.0
  0
POINT
  5
3600
330
2096
100
AcDbEntity
  8
Defpoints
 62
     0
100
AcDbPoint
 10
1759.559094235713
 20
1155.833394069355
 30
0.0
  0
POINT
  5
3601
330
2096
100
AcDbEntity
  8
Defpoints
 62
     0
100
AcDbPoint
 10
1759.559094235713
 20
1036.807958926578
 30
0.0
  0
ENDBLK
  5
20A1
330
2096
100
AcDbEntity
  8
0
 62
     3
100
AcDbBlockEnd
  0
BLOCK
  5
20E4
330
20DA
100
AcDbEntity
  8
0
100
AcDbBlockBegin
  2
*D21
 70
     1
 10
0.0
 20
0.0
 30
0.0
  3
*D21
  1

  0
LINE
  5
3602
330
20DA
100
AcDbEntity
  8
実形
 62
     0
370
    15
100
AcDbLine
 10
1239.559094235713
 20
1090.833394069355
 30
0.0
 11
1239.559094235713
 21
1036.807958926578
 31
0.0
  0
LINE
  5
3603
330
20DA
100
AcDbEntity
  8
実形
 62
     0
370
    15
100
AcDbLine
 10
1759.559094235713
 20
1090.833394069355
 30
0.0
 11
1759.559094235713
 21
1036.807958926578
 31
0.0
  0
LINE
  5
3604
330
20DA
100
AcDbEntity
  8
実形
 62
     0
370
    15
100
AcDbLine
 10
1239.559094235713
 20
1036.807958926578
 30
0.0
 11
1759.559094235713
 21
1036.807958926578
 31
0.0
  0
INSERT
  5
3605
330
20DA
100
AcDbEntity
  8
実形
 62
     0
370
    15
100
AcDbBlockReference
  2
_DotSmall
 10
1239.559094235713
 20
1036.807958926578
 30
0.0
 41
30.0
 42
30.0
 43
30.0
 50
180.0
  0
INSERT
  5
3606
330
20DA
100
AcDbEntity
  8
実形
 62
     0
370
    15
100
AcDbBlockReference
  2
_DotSmall
 10
1759.559094235713
 20
1036.807958926578
 30
0.0
 41
30.0
 42
30.0
 43
30.0
  0
MTEXT
  5
3607
330
20DA
100
AcDbEntity
  8
実形
 62
     0
100
AcDbMText
 10
1499.559094235713
 20
1055.557958926578
 30
0.0
 40
25.0
 41
0.0
 71
     5
 72
     1
  1
490
 73
     1
 44
1.0
1001
ACAD
1000
MTEXTBEGIN
1070
    73
1070
     1
1070
    44
1040
1.0
1070
    74
1070
     0
1000
MTEXTEND
  0
POINT
  5
3608
330
20DA
100
AcDbEntity
  8
Defpoints
 62
     0
100
AcDbPoint
 10
1239.559094235713
 20
1155.833394069355
 30
0.0
  0
POINT
  5
3609
330
20DA
100
AcDbEntity
  8
Defpoints
 62
     0
100
AcDbPoint
 10
1759.559094235713
 20
1155.833394069355
 30
0.0
  0
POINT
  5
360A
330
20DA
100
AcDbEntity
  8
Defpoints
 62
     0
100
AcDbPoint
 10
1759.559094235713
 20
1036.807958926578
 30
0.0
  0
ENDBLK
  5
20E5
330
20DA
100
AcDbEntity
  8
0
100
AcDbBlockEnd
  0
BLOCK
  5
2C0D
330
2C03
100
AcDbEntity
  8
0
 62
     3
100
AcDbBlockBegin
  2
*D25
 70
     1
 10
0.0
 20
0.0
 30
0.0
  3
*D25
  1

  0
LINE
  5
3750
330
2C03
100
AcDbEntity
  8
実形
 62
     0
370
    15
100
AcDbLine
 10
1825.353613479475
 20
630.5916946270616
 30
0.0
 11
1877.679761692136
 21
630.5916946270616
 31
0.0
  0
LINE
  5
3751
330
2C03
100
AcDbEntity
  8
実形
 62
     0
370
    15
100
AcDbLine
 10
1825.377003152915
 20
615.2661477511848
 30
0.0
 11
1877.679761692136
 21
615.2661477511848
 31
0.0
  0
LINE
  5
3752
330
2C03
100
AcDbEntity
  8
実形
 62
     0
370
    15
100
AcDbLine
 10
1877.679761692136
 20
630.5916946270616
 30
0.0
 11
1877.679761692136
 21
615.2661477511848
 31
0.0
  0
MTEXT
  5
3753
330
2C03
100
AcDbEntity
  8
実形
 62
     0
100
AcDbMText
 10
1854.494863024216
 20
654.8222137574775
 30
0.0
 40
25.0
 41
0.0
 71
     5
 72
     1
  1
15
 11
0.0000000000000001
 21
1.0
 31
0.0
 73
     1
 44
1.0
1001
ACAD
1000
MTEXTBEGIN
1070
    73
1070
     1
1070
    44
1040
1.0
1070
    74
1070
     0
1000
MTEXTEND
  0
INSERT
  5
3754
330
2C03
100
AcDbEntity
  8
実形
 62
     0
370
    15
100
AcDbBlockReference
  2
_DotSmall
 10
1877.679761692136
 20
630.5916946270616
 30
0.0
 41
30.0
 42
30.0
 43
30.0
 50
90.0
  0
INSERT
  5
3755
330
2C03
100
AcDbEntity
  8
実形
 62
     0
370
    15
100
AcDbBlockReference
  2
_DotSmall
 10
1877.679761692136
 20
615.2661477511848
 30
0.0
 41
30.0
 42
30.0
 43
30.0
 50
270.0
  0
POINT
  5
3756
330
2C03
100
AcDbEntity
  8
Defpoints
 62
     0
100
AcDbPoint
 10
1760.353613479475
 20
630.5916946270618
 30
0.0
  0
POINT
  5
3757
330
2C03
100
AcDbEntity
  8
Defpoints
 62
     0
100
AcDbPoint
 10
1760.377003152915
 20
615.266147751185
 30
0.0
  0
POINT
  5
3758
330
2C03
100
AcDbEntity
  8
Defpoints
 62
     0
100
AcDbPoint
 10
1877.679761692136
 20
615.2661477511848
 30
0.0
  0
ENDBLK
  5
2C0E
330
2C03
100
AcDbEntity
  8
0
 62
     3
100
AcDbBlockEnd
  0
BLOCK
  5
2C19
330
2C0F
100
AcDbEntity
  8
0
 62
     3
100
AcDbBlockBegin
  2
*D26
 70
     1
 10
0.0
 20
0.0
 30
0.0
  3
*D26
  1

  0
LINE
  5
3759
330
2C0F
100
AcDbEntity
  8
実形
 62
     0
370
    15
100
AcDbLine
 10
1824.97757740204
 20
605.2661477511848
 30
0.0
 11
1877.679761692136
 21
605.2661477511848
 31
0.0
  0
LINE
  5
375A
330
2C0F
100
AcDbEntity
  8
実形
 62
     0
370
    15
100
AcDbLine
 10
1853.736405221391
 20
630.449674969886
 30
0.0
 11
1877.679761692136
 21
630.449674969886
 31
0.0
  0
LINE
  5
375B
330
2C0F
100
AcDbEntity
  8
実形
 62
     0
370
    15
100
AcDbLine
 10
1877.679761692136
 20
605.2661477511848
 30
0.0
 11
1877.679761692136
 21
630.449674969886
 31
0.0
  0
MTEXT
  5
375C
330
2C0F
100
AcDbEntity
  8
実形
 62
     0
100
AcDbMText
 10
1859.411691276164
 20
590.9295496990207
 30
0.0
 40
25.0
 41
0.0
 71
     5
 72
     1
  1
7
 11
0.0000000000000001
 21
1.0
 31
0.0
 73
     1
 44
1.0
1001
ACAD
1000
MTEXTBEGIN
1070
    73
1070
     1
1070
    44
1040
1.0
1070
    74
1070
     0
1000
MTEXTEND
  0
INSERT
  5
375D
330
2C0F
100
AcDbEntity
  8
実形
 62
     0
370
    15
100
AcDbBlockReference
  2
_DotSmall
 10
1877.679761692136
 20
605.2661477511848
 30
0.0
 41
30.0
 42
30.0
 43
30.0
 50
270.0
  0
INSERT
  5
375E
330
2C0F
100
AcDbEntity
  8
実形
 62
     0
370
    15
100
AcDbBlockReference
  2
_DotSmall
 10
1877.679761692136
 20
630.449674969886
 30
0.0
 41
30.0
 42
30.0
 43
30.0
 50
90.0
  0
POINT
  5
375F
330
2C0F
100
AcDbEntity
  8
Defpoints
 62
     0
100
AcDbPoint
 10
1759.97757740204
 20
605.2661477511849
 30
0.0
  0
POINT
  5
3760
330
2C0F
100
AcDbEntity
  8
Defpoints
 62
     0
100
AcDbPoint
 10
1788.73640522139
 20
630.4496749698861
 30
0.0
  0
POINT
  5
3761
330
2C0F
100
AcDbEntity
  8
Defpoints
 62
     0
100
AcDbPoint
 10
1877.679761692136
 20
630.449674969886
 30
0.0
  0
ENDBLK
  5
2C1A
330
2C0F
100
AcDbEntity
  8
0
 62
     3
100
AcDbBlockEnd
  0
BLOCK
  5
2C25
330
2C1B
100
AcDbEntity
  8
0
 62
     3
100
AcDbBlockBegin
  2
*D27
 70
     1
 10
0.0
 20
0.0
 30
0.0
  3
*D27
  1

  0
LINE
  5
3762
330
2C1B
100
AcDbEntity
  8
実形
 62
     0
370
    15
100
AcDbLine
 10
1859.935227564574
 20
805.2661477511849
 30
0.0
 11
1964.220660130322
 21
805.2661477511849
 31
0.0
  0
LINE
  5
3763
330
2C1B
100
AcDbEntity
  8
実形
 62
     0
370
    15
100
AcDbLine
 10
1859.935227564574
 20
615.266147751185
 30
0.0
 11
1964.220660130322
 21
615.266147751185
 31
0.0
  0
LINE
  5
3764
330
2C1B
100
AcDbEntity
  8
実形
 62
     0
370
    15
100
AcDbLine
 10
1964.220660130322
 20
805.2661477511849
 30
0.0
 11
1964.220660130322
 21
615.266147751185
 31
0.0
  0
INSERT
  5
3765
330
2C1B
100
AcDbEntity
  8
実形
 62
     0
370
    15
100
AcDbBlockReference
  2
_DotSmall
 10
1964.220660130322
 20
805.2661477511849
 30
0.0
 41
30.0
 42
30.0
 43
30.0
 50
90.0
  0
INSERT
  5
3766
330
2C1B
100
AcDbEntity
  8
実形
 62
     0
370
    15
100
AcDbBlockReference
  2
_DotSmall
 10
1964.220660130322
 20
615.266147751185
 30
0.0
 41
30.0
 42
30.0
 43
30.0
 50
270.0
  0
MTEXT
  5
3767
330
2C1B
100
AcDbEntity
  8
実形
 62
     0
100
AcDbMText
 10
1945.470660130322
 20
710.2661477511852
 30
0.0
 40
25.0
 41
0.0
 71
     5
 72
     1
  1
190
 11
0.0000000000000001
 21
1.0
 31
0.0
 73
     1
 44
1.0
1001
ACAD
1000
MTEXTBEGIN
1070
    73
1070
     1
1070
    44
1040
1.0
1070
    74
1070
     0
1000
MTEXTEND
  0
POINT
  5
3768
330
2C1B
100
AcDbEntity
  8
Defpoints
 62
     0
100
AcDbPoint
 10
1794.935227564574
 20
805.2661477511849
 30
0.0
  0
POINT
  5
3769
330
2C1B
100
AcDbEntity
  8
Defpoints
 62
     0
100
AcDbPoint
 10
1794.935227564574
 20
615.266147751185
 30
0.0
  0
POINT
  5
376A
330
2C1B
100
AcDbEntity
  8
Defpoints
 62
     0
100
AcDbPoint
 10
1964.220660130322
 20
615.266147751185
 30
0.0
  0
ENDBLK
  5
2C26
330
2C1B
100
AcDbEntity
  8
0
 62
     3
100
AcDbBlockEnd
  0
BLOCK
  5
2C31
330
2C27
100
AcDbEntity
  8
0
 62
     3
100
AcDbBlockBegin
  2
*D28
 70
     1
 10
0.0
 20
0.0
 30
0.0
  3
*D28
  1

  0
LINE
  5
376B
330
2C27
100
AcDbEntity
  8
実形
 62
     0
370
    15
100
AcDbLine
 10
1824.559094235712
 20
805.2661477511847
 30
0.0
 11
1877.679761692135
 21
805.2661477511847
 31
0.0
  0
LINE
  5
376C
330
2C27
100
AcDbEntity
  8
実形
 62
     0
370
    15
100
AcDbLine
 10
1824.559094235712
 20
790.2661477511847
 30
0.0
 11
1877.679761692135
 21
790.2661477511847
 31
0.0
  0
LINE
  5
376D
330
2C27
100
AcDbEntity
  8
実形
 62
     0
370
    15
100
AcDbLine
 10
1877.679761692135
 20
805.2661477511847
 30
0.0
 11
1877.679761692135
 21
790.2661477511847
 31
0.0
  0
MTEXT
  5
376E
330
2C27
100
AcDbEntity
  8
実形
 62
     0
100
AcDbMText
 10
1857.174099327358
 20
827.5799926664557
 30
0.0
 40
25.0
 41
0.0
 71
     5
 72
     1
  1
15
 11
0.0000000000000001
 21
1.0
 31
0.0
 73
     1
 44
1.0
1001
ACAD
1000
MTEXTBEGIN
1070
    73
1070
     1
1070
    44
1040
1.0
1070
    74
1070
     0
1000
MTEXTEND
  0
INSERT
  5
376F
330
2C27
100
AcDbEntity
  8
実形
 62
     0
370
    15
100
AcDbBlockReference
  2
_DotSmall
 10
1877.679761692135
 20
805.2661477511847
 30
0.0
 41
30.0
 42
30.0
 43
30.0
 50
90.0
  0
INSERT
  5
3770
330
2C27
100
AcDbEntity
  8
実形
 62
     0
370
    15
100
AcDbBlockReference
  2
_DotSmall
 10
1877.679761692135
 20
790.2661477511847
 30
0.0
 41
30.0
 42
30.0
 43
30.0
 50
270.0
  0
POINT
  5
3771
330
2C27
100
AcDbEntity
  8
Defpoints
 62
     0
100
AcDbPoint
 10
1759.559094235713
 20
805.2661477511849
 30
0.0
  0
POINT
  5
3772
330
2C27
100
AcDbEntity
  8
Defpoints
 62
     0
100
AcDbPoint
 10
1759.559094235713
 20
790.2661477511849
 30
0.0
  0
POINT
  5
3773
330
2C27
100
AcDbEntity
  8
Defpoints
 62
     0
100
AcDbPoint
 10
1877.679761692135
 20
790.2661477511847
 30
0.0
  0
ENDBLK
  5
2C32
330
2C27
100
AcDbEntity
  8
0
 62
     3
100
AcDbBlockEnd
  0
BLOCK
  5
2C3D
330
2C33
100
AcDbEntity
  8
0
 62
     3
100
AcDbBlockBegin
  2
*D29
 70
     1
 10
0.0
 20
0.0
 30
0.0
  3
*D29
  1

  0
LINE
  5
3774
330
2C33
100
AcDbEntity
  8
実形
 62
     0
370
    15
100
AcDbLine
 10
1859.935227564574
 20
805.2661477511849
 30
0.0
 11
1964.220660130322
 21
805.2661477511849
 31
0.0
  0
LINE
  5
3775
330
2C33
100
AcDbEntity
  8
実形
 62
     0
370
    15
100
AcDbLine
 10
1859.935227564574
 20
615.266147751185
 30
0.0
 11
1964.220660130322
 21
615.266147751185
 31
0.0
  0
LINE
  5
3776
330
2C33
100
AcDbEntity
  8
実形
 62
     0
370
    15
100
AcDbLine
 10
1964.220660130322
 20
805.2661477511849
 30
0.0
 11
1964.220660130322
 21
615.266147751185
 31
0.0
  0
INSERT
  5
3777
330
2C33
100
AcDbEntity
  8
実形
 62
     0
370
    15
100
AcDbBlockReference
  2
_DotSmall
 10
1964.220660130322
 20
805.2661477511849
 30
0.0
 41
30.0
 42
30.0
 43
30.0
 50
90.0
  0
INSERT
  5
3778
330
2C33
100
AcDbEntity
  8
実形
 62
     0
370
    15
100
AcDbBlockReference
  2
_DotSmall
 10
1964.220660130322
 20
615.266147751185
 30
0.0
 41
30.0
 42
30.0
 43
30.0
 50
270.0
  0
MTEXT
  5
3779
330
2C33
100
AcDbEntity
  8
実形
 62
     0
100
AcDbMText
 10
1945.470660130322
 20
710.2661477511852
 30
0.0
 40
25.0
 41
0.0
 71
     5
 72
     1
  1
190
 11
0.0000000000000001
 21
1.0
 31
0.0
 73
     1
 44
1.0
1001
ACAD
1000
MTEXTBEGIN
1070
    73
1070
     1
1070
    44
1040
1.0
1070
    74
1070
     0
1000
MTEXTEND
  0
POINT
  5
377A
330
2C33
100
AcDbEntity
  8
Defpoints
 62
     0
100
AcDbPoint
 10
1794.935227564574
 20
805.2661477511849
 30
0.0
  0
POINT
  5
377B
330
2C33
100
AcDbEntity
  8
Defpoints
 62
     0
100
AcDbPoint
 10
1794.935227564574
 20
615.266147751185
 30
0.0
  0
POINT
  5
377C
330
2C33
100
AcDbEntity
  8
Defpoints
 62
     0
100
AcDbPoint
 10
1964.220660130322
 20
615.266147751185
 30
0.0
  0
ENDBLK
  5
2C3E
330
2C33
100
AcDbEntity
  8
0
 62
     3
100
AcDbBlockEnd
  0
BLOCK
  5
2EDF
330
2ED5
100
AcDbEntity
  8
0
 62
     3
100
AcDbBlockBegin
  2
*D36
 70
     1
 10
0.0
 20
0.0
 30
0.0
  3
*D36
  1

  0
LINE
  5
377D
330
2ED5
100
AcDbEntity
  8
寸法
 62
     0
370
    15
100
AcDbLine
 10
1023.059094235713
 20
575.2661477511851
 30
0.0
 11
1023.059094235713
 21
523.8387404501122
 31
0.0
  0
LINE
  5
377E
330
2ED5
100
AcDbEntity
  8
寸法
 62
     0
370
    15
100
AcDbLine
 10
1111.059094235713
 20
575.2661477511851
 30
0.0
 11
1111.059094235713
 21
523.8387404501122
 31
0.0
  0
LINE
  5
377F
330
2ED5
100
AcDbEntity
  8
寸法
 62
     0
370
    18
100
AcDbLine
 10
1023.059094235713
 20
523.8387404501122
 30
0.0
 11
1111.059094235713
 21
523.8387404501122
 31
0.0
  0
INSERT
  5
3780
330
2ED5
100
AcDbEntity
  8
寸法
 62
     0
370
    18
100
AcDbBlockReference
  2
_DotSmall
 10
1023.059094235713
 20
523.8387404501122
 30
0.0
 41
25.0
 42
25.0
 43
25.0
 50
180.0
  0
INSERT
  5
3781
330
2ED5
100
AcDbEntity
  8
寸法
 62
     0
370
    18
100
AcDbBlockReference
  2
_DotSmall
 10
1111.059094235713
 20
523.8387404501122
 30
0.0
 41
25.0
 42
25.0
 43
25.0
  0
MTEXT
  5
3782
330
2ED5
100
AcDbEntity
  8
寸法
 62
     0
100
AcDbMText
 10
1067.059094235713
 20
542.5887404501122
 30
0.0
 40
25.0
 41
0.0
 71
     5
 72
     1
  1
88
 73
     1
 44
1.0
1001
ACAD
1000
MTEXTBEGIN
1070
    73
1070
     1
1070
    44
1040
1.0
1070
    74
1070
     0
1000
MTEXTEND
  0
POINT
  5
3783
330
2ED5
100
AcDbEntity
  8
Defpoints
 62
     0
100
AcDbPoint
 10
1023.059094235713
 20
640.2661477511851
 30
0.0
  0
POINT
  5
3784
330
2ED5
100
AcDbEntity
  8
Defpoints
 62
     0
100
AcDbPoint
 10
1111.059094235713
 20
640.2661477511851
 30
0.0
  0
POINT
  5
3785
330
2ED5
100
AcDbEntity
  8
Defpoints
 62
     0
100
AcDbPoint
 10
1111.059094235713
 20
523.8387404501122
 30
0.0
  0
ENDBLK
  5
2EE0
330
2ED5
100
AcDbEntity
  8
0
 62
     3
100
AcDbBlockEnd
  0
BLOCK
  5
2EEB
330
2EE1
100
AcDbEntity
  8
0
 62
     3
100
AcDbBlockBegin
  2
*D37
 70
     1
 10
0.0
 20
0.0
 30
0.0
  3
*D37
  1

  0
LINE
  5
3786
330
2EE1
100
AcDbEntity
  8
寸法
 62
     0
370
    15
100
AcDbLine
 10
1009.059094235713
 20
575.2661477511851
 30
0.0
 11
1009.059094235713
 21
463.8793418811833
 31
0.0
  0
LINE
  5
3787
330
2EE1
100
AcDbEntity
  8
寸法
 62
     0
370
    15
100
AcDbLine
 10
1125.059094235713
 20
575.2661477511851
 30
0.0
 11
1125.059094235713
 21
463.8793418811833
 31
0.0
  0
LINE
  5
3788
330
2EE1
100
AcDbEntity
  8
寸法
 62
     0
370
    18
100
AcDbLine
 10
1009.059094235713
 20
463.8793418811833
 30
0.0
 11
1125.059094235713
 21
463.8793418811833
 31
0.0
  0
INSERT
  5
3789
330
2EE1
100
AcDbEntity
  8
寸法
 62
     0
370
    18
100
AcDbBlockReference
  2
_DotSmall
 10
1009.059094235713
 20
463.8793418811833
 30
0.0
 41
25.0
 42
25.0
 43
25.0
 50
180.0
  0
INSERT
  5
378A
330
2EE1
100
AcDbEntity
  8
寸法
 62
     0
370
    18
100
AcDbBlockReference
  2
_DotSmall
 10
1125.059094235713
 20
463.8793418811833
 30
0.0
 41
25.0
 42
25.0
 43
25.0
  0
MTEXT
  5
378B
330
2EE1
100
AcDbEntity
  8
寸法
 62
     0
100
AcDbMText
 10
1067.059094235713
 20
482.6293418811833
 30
0.0
 40
25.0
 41
0.0
 71
     5
 72
     1
  1
116
 73
     1
 44
1.0
1001
ACAD
1000
MTEXTBEGIN
1070
    73
1070
     1
1070
    44
1040
1.0
1070
    74
1070
     0
1000
MTEXTEND
  0
POINT
  5
378C
330
2EE1
100
AcDbEntity
  8
Defpoints
 62
     0
100
AcDbPoint
 10
1009.059094235713
 20
640.2661477511851
 30
0.0
  0
POINT
  5
378D
330
2EE1
100
AcDbEntity
  8
Defpoints
 62
     0
100
AcDbPoint
 10
1125.059094235713
 20
640.2661477511851
 30
0.0
  0
POINT
  5
378E
330
2EE1
100
AcDbEntity
  8
Defpoints
 62
     0
100
AcDbPoint
 10
1125.059094235713
 20
463.8793418811833
 30
0.0
  0
ENDBLK
  5
2EEC
330
2EE1
100
AcDbEntity
  8
0
 62
     3
100
AcDbBlockEnd
  0
BLOCK
  5
3009
330
2FFF
100
AcDbEntity
  8
0
 62
     3
100
AcDbBlockBegin
  2
*D38
 70
     1
 10
0.0
 20
0.0
 30
0.0
  3
*D38
  1

  0
LINE
  5
3641
330
2FFF
100
AcDbEntity
  8
寸法
 62
     0
370
    15
100
AcDbLine
 10
442.3721056737668
 20
1512.86010153411
 30
0.0
 11
397.0659615818468
 21
1512.86010153411
 31
0.0
  0
LINE
  5
3642
330
2FFF
100
AcDbEntity
  8
寸法
 62
     0
370
    15
100
AcDbLine
 10
442.3721056737668
 20
1424.86010153411
 30
0.0
 11
397.0659615818468
 21
1424.86010153411
 31
0.0
  0
LINE
  5
3643
330
2FFF
100
AcDbEntity
  8
寸法
 62
     0
370
    18
100
AcDbLine
 10
397.0659615818468
 20
1512.86010153411
 30
0.0
 11
397.0659615818468
 21
1424.86010153411
 31
0.0
  0
INSERT
  5
3644
330
2FFF
100
AcDbEntity
  8
寸法
 62
     0
370
    18
100
AcDbBlockReference
  2
_DotSmall
 10
397.0659615818468
 20
1512.86010153411
 30
0.0
 41
25.0
 42
25.0
 43
25.0
 50
90.0
  0
INSERT
  5
3645
330
2FFF
100
AcDbEntity
  8
寸法
 62
     0
370
    18
100
AcDbBlockReference
  2
_DotSmall
 10
397.0659615818468
 20
1424.86010153411
 30
0.0
 41
25.0
 42
25.0
 43
25.0
 50
270.0
  0
MTEXT
  5
3646
330
2FFF
100
AcDbEntity
  8
寸法
 62
     0
100
AcDbMText
 10
378.3159615818465
 20
1468.86010153411
 30
0.0
 40
25.0
 41
0.0
 71
     5
 72
     1
  1
88
 11
0.0000000000000001
 21
1.0
 31
0.0
 73
     1
 44
1.0
1001
ACAD
1000
MTEXTBEGIN
1070
    73
1070
     1
1070
    44
1040
1.0
1070
    74
1070
     0
1000
MTEXTEND
  0
POINT
  5
3647
330
2FFF
100
AcDbEntity
  8
Defpoints
 62
     0
100
AcDbPoint
 10
507.3721056737667
 20
1512.86010153411
 30
0.0
  0
POINT
  5
3648
330
2FFF
100
AcDbEntity
  8
Defpoints
 62
     0
100
AcDbPoint
 10
507.3721056737667
 20
1424.86010153411
 30
0.0
  0
POINT
  5
3649
330
2FFF
100
AcDbEntity
  8
Defpoints
 62
     0
100
AcDbPoint
 10
397.0659615818468
 20
1424.86010153411
 30
0.0
  0
ENDBLK
  5
300A
330
2FFF
100
AcDbEntity
  8
0
 62
     3
100
AcDbBlockEnd
  0
BLOCK
  5
3015
330
300B
100
AcDbEntity
  8
0
 62
     3
100
AcDbBlockBegin
  2
*D39
 70
     1
 10
0.0
 20
0.0
 30
0.0
  3
*D39
  1

  0
LINE
  5
364A
330
300B
100
AcDbEntity
  8
寸法
 62
     0
370
    15
100
AcDbLine
 10
442.3721056737668
 20
1526.86010153411
 30
0.0
 11
332.1443736170049
 21
1526.86010153411
 31
0.0
  0
LINE
  5
364B
330
300B
100
AcDbEntity
  8
寸法
 62
     0
370
    15
100
AcDbLine
 10
442.3721056737668
 20
1410.86010153411
 30
0.0
 11
332.1443736170049
 21
1410.86010153411
 31
0.0
  0
LINE
  5
364C
330
300B
100
AcDbEntity
  8
寸法
 62
     0
370
    18
100
AcDbLine
 10
332.1443736170049
 20
1526.86010153411
 30
0.0
 11
332.1443736170049
 21
1410.86010153411
 31
0.0
  0
INSERT
  5
364D
330
300B
100
AcDbEntity
  8
寸法
 62
     0
370
    18
100
AcDbBlockReference
  2
_DotSmall
 10
332.1443736170049
 20
1526.86010153411
 30
0.0
 41
25.0
 42
25.0
 43
25.0
 50
90.0
  0
INSERT
  5
364E
330
300B
100
AcDbEntity
  8
寸法
 62
     0
370
    18
100
AcDbBlockReference
  2
_DotSmall
 10
332.1443736170049
 20
1410.86010153411
 30
0.0
 41
25.0
 42
25.0
 43
25.0
 50
270.0
  0
MTEXT
  5
364F
330
300B
100
AcDbEntity
  8
寸法
 62
     0
100
AcDbMText
 10
313.3943736170047
 20
1468.86010153411
 30
0.0
 40
25.0
 41
0.0
 71
     5
 72
     1
  1
116
 11
0.0000000000000001
 21
1.0
 31
0.0
 73
     1
 44
1.0
1001
ACAD
1000
MTEXTBEGIN
1070
    73
1070
     1
1070
    44
1040
1.0
1070
    74
1070
     0
1000
MTEXTEND
  0
POINT
  5
3650
330
300B
100
AcDbEntity
  8
Defpoints
 62
     0
100
AcDbPoint
 10
507.3721056737667
 20
1526.86010153411
 30
0.0
  0
POINT
  5
3651
330
300B
100
AcDbEntity
  8
Defpoints
 62
     0
100
AcDbPoint
 10
507.3721056737667
 20
1410.86010153411
 30
0.0
  0
POINT
  5
3652
330
300B
100
AcDbEntity
  8
Defpoints
 62
     0
100
AcDbPoint
 10
332.1443736170049
 20
1410.86010153411
 30
0.0
  0
ENDBLK
  5
3016
330
300B
100
AcDbEntity
  8
0
 62
     3
100
AcDbBlockEnd
  0
BLOCK
  5
324D
330
3243
100
AcDbEntity
  8
0
 62
     3
100
AcDbBlockBegin
  2
*D51
 70
     1
 10
0.0
 20
0.0
 30
0.0
  3
*D51
  1

  0
LINE
  5
3664
330
3243
100
AcDbEntity
  8
実形
 62
     0
370
    15
100
AcDbLine
 10
1194.873072993868
 20
1090.922440018559
 30
0.0
 11
1194.873072993868
 21
1036.807958926578
 31
0.0
  0
LINE
  5
3665
330
3243
100
AcDbEntity
  8
実形
 62
     0
370
    15
100
AcDbLine
 10
939.8760497229254
 20
1092.154561343092
 30
0.0
 11
939.8760497229254
 21
1036.807958926578
 31
0.0
  0
LINE
  5
3666
330
3243
100
AcDbEntity
  8
実形
 62
     0
370
    15
100
AcDbLine
 10
1194.873072993868
 20
1036.807958926578
 30
0.0
 11
939.8760497229254
 21
1036.807958926578
 31
0.0
  0
INSERT
  5
3667
330
3243
100
AcDbEntity
  8
実形
 62
     0
370
    15
100
AcDbBlockReference
  2
_DotSmall
 10
1194.873072993868
 20
1036.807958926578
 30
0.0
 41
30.0
 42
30.0
 43
30.0
  0
INSERT
  5
3668
330
3243
100
AcDbEntity
  8
実形
 62
     0
370
    15
100
AcDbBlockReference
  2
_DotSmall
 10
939.8760497229254
 20
1036.807958926578
 30
0.0
 41
30.0
 42
30.0
 43
30.0
 50
180.0
  0
MTEXT
  5
3669
330
3243
100
AcDbEntity
  8
実形
 62
     0
100
AcDbMText
 10
1067.374561358397
 20
1055.557958926578
 30
0.0
 40
25.0
 41
0.0
 71
     5
 72
     1
  1
255
 73
     1
 44
1.0
1001
ACAD
1000
MTEXTBEGIN
1070
    73
1070
     1
1070
    44
1040
1.0
1070
    74
1070
     0
1000
MTEXTEND
  0
POINT
  5
366A
330
3243
100
AcDbEntity
  8
Defpoints
 62
     0
100
AcDbPoint
 10
1194.873072993868
 20
1155.922440018559
 30
0.0
  0
POINT
  5
366B
330
3243
100
AcDbEntity
  8
Defpoints
 62
     0
100
AcDbPoint
 10
939.8760497229254
 20
1157.154561343092
 30
0.0
  0
POINT
  5
366C
330
3243
100
AcDbEntity
  8
Defpoints
 62
     0
100
AcDbPoint
 10
939.8760497229254
 20
1036.807958926578
 30
0.0
  0
ENDBLK
  5
324E
330
3243
100
AcDbEntity
  8
0
 62
     3
100
AcDbBlockEnd
  0
BLOCK
  5
325C
330
3250
100
AcDbEntity
  8
0
 62
     3
100
AcDbBlockBegin
  2
*D52
 70
     1
 10
0.0
 20
0.0
 30
0.0
  3
*D52
  1

  0
LINE
  5
366D
330
3250
100
AcDbEntity
  8
実形
 62
     0
370
    15
100
AcDbLine
 10
1194.873295757544
 20
1090.968542681632
 30
0.0
 11
1194.873295757544
 21
1036.807958926578
 31
0.0
  0
LINE
  5
366E
330
3250
100
AcDbEntity
  8
実形
 62
     0
370
    15
100
AcDbLine
 10
1239.873598305128
 20
1090.922440018559
 30
0.0
 11
1239.873598305128
 21
1036.807958926578
 31
0.0
  0
LINE
  5
366F
330
3250
100
AcDbEntity
  8
実形
 62
     0
370
    15
100
AcDbLine
 10
1194.873295757544
 20
1036.807958926578
 30
0.0
 11
1239.873598305128
 21
1036.807958926578
 31
0.0
  0
MTEXT
  5
3670
330
3250
100
AcDbEntity
  8
実形
 62
     0
100
AcDbMText
 10
1217.116765895809
 20
1058.409728910215
 30
0.0
 40
21.0
 41
0.0
 71
     5
 72
     1
  1
45
 73
     1
 44
1.0
1001
ACAD
1000
MTEXTBEGIN
1070
    73
1070
     1
1070
    44
1040
1.0
1070
    74
1070
     0
1000
MTEXTEND
  0
INSERT
  5
3671
330
3250
100
AcDbEntity
  8
実形
 62
     0
370
    15
100
AcDbBlockReference
  2
_DotSmall
 10
1194.873295757544
 20
1036.807958926578
 30
0.0
 41
30.0
 42
30.0
 43
30.0
 50
180.0
  0
INSERT
  5
3672
330
3250
100
AcDbEntity
  8
実形
 62
     0
370
    15
100
AcDbBlockReference
  2
_DotSmall
 10
1239.873598305128
 20
1036.807958926578
 30
0.0
 41
30.0
 42
30.0
 43
30.0
  0
POINT
  5
3673
330
3250
100
AcDbEntity
  8
Defpoints
 62
     0
100
AcDbPoint
 10
1194.873295757544
 20
1155.968542681632
 30
0.0
  0
POINT
  5
3674
330
3250
100
AcDbEntity
  8
Defpoints
 62
     0
100
AcDbPoint
 10
1239.873598305128
 20
1155.922440018559
 30
0.0
  0
POINT
  5
3675
330
3250
100
AcDbEntity
  8
Defpoints
 62
     0
100
AcDbPoint
 10
1239.873598305128
 20
1036.807958926578
 30
0.0
  0
ENDBLK
  5
325D
330
3250
100
AcDbEntity
  8
0
 62
     3
100
AcDbBlockEnd
  0
BLOCK
  5
329A
330
328E
100
AcDbEntity
  8
0
 62
     3
100
AcDbBlockBegin
  2
*D53
 70
     1
 10
0.0
 20
0.0
 30
0.0
  3
*D53
  1

  0
LINE
  5
3676
330
328E
100
AcDbEntity
  8
実形
 62
     0
370
    15
100
AcDbLine
 10
1759.559094235713
 20
1090.922440018559
 30
0.0
 11
1759.559094235713
 21
1036.807958926578
 31
0.0
  0
LINE
  5
3677
330
328E
100
AcDbEntity
  8
実形
 62
     0
370
    15
100
AcDbLine
 10
1794.559094235713
 20
1090.922440018559
 30
0.0
 11
1794.559094235713
 21
1036.807958926578
 31
0.0
  0
LINE
  5
3678
330
328E
100
AcDbEntity
  8
実形
 62
     0
370
    15
100
AcDbLine
 10
1759.559094235713
 20
1036.807958926578
 30
0.0
 11
1794.559094235713
 21
1036.807958926578
 31
0.0
  0
MTEXT
  5
3679
330
328E
100
AcDbEntity
  8
実形
 62
     0
100
AcDbMText
 10
1832.856919277861
 20
1056.818121839123
 30
0.0
 40
25.0
 41
0.0
 71
     5
 72
     1
  1
35
 73
     1
 44
1.0
1001
ACAD
1000
MTEXTBEGIN
1070
    73
1070
     1
1070
    44
1040
1.0
1070
    74
1070
     0
1000
MTEXTEND
  0
INSERT
  5
367A
330
328E
100
AcDbEntity
  8
実形
 62
     0
370
    15
100
AcDbBlockReference
  2
_DotSmall
 10
1759.559094235713
 20
1036.807958926578
 30
0.0
 41
30.0
 42
30.0
 43
30.0
 50
180.0
  0
INSERT
  5
367B
330
328E
100
AcDbEntity
  8
実形
 62
     0
370
    15
100
AcDbBlockReference
  2
_DotSmall
 10
1794.559094235713
 20
1036.807958926578
 30
0.0
 41
30.0
 42
30.0
 43
30.0
  0
POINT
  5
367C
330
328E
100
AcDbEntity
  8
Defpoints
 62
     0
100
AcDbPoint
 10
1759.559094235713
 20
1155.922440018559
 30
0.0
  0
POINT
  5
367D
330
328E
100
AcDbEntity
  8
Defpoints
 62
     0
100
AcDbPoint
 10
1794.559094235713
 20
1155.922440018559
 30
0.0
  0
POINT
  5
367E
330
328E
100
AcDbEntity
  8
Defpoints
 62
     0
100
AcDbPoint
 10
1794.559094235713
 20
1036.807958926578
 30
0.0
  0
ENDBLK
  5
329B
330
328E
100
AcDbEntity
  8
0
 62
     3
100
AcDbBlockEnd
  0
BLOCK
  5
32D5
330
32CB
100
AcDbEntity
  8
0
 62
     3
100
AcDbBlockBegin
  2
*D54
 70
     1
 10
0.0
 20
0.0
 30
0.0
  3
*D54
  1

  0
LINE
  5
367F
330
32CB
100
AcDbEntity
  8
実形
 62
     0
370
    15
100
AcDbLine
 10
1239.559094235713
 20
1033.101467827458
 30
0.0
 11
1239.559094235713
 21
989.0532822361747
 31
0.0
  0
LINE
  5
3680
330
32CB
100
AcDbEntity
  8
実形
 62
     0
370
    15
100
AcDbLine
 10
1759.559094235713
 20
1033.101467827458
 30
0.0
 11
1759.559094235713
 21
989.0532822361747
 31
0.0
  0
LINE
  5
3681
330
32CB
100
AcDbEntity
  8
実形
 62
     0
370
    15
100
AcDbLine
 10
1239.559094235713
 20
989.0532822361747
 30
0.0
 11
1759.559094235713
 21
989.0532822361747
 31
0.0
  0
INSERT
  5
3682
330
32CB
100
AcDbEntity
  8
実形
 62
     0
370
    15
100
AcDbBlockReference
  2
_DotSmall
 10
1239.559094235713
 20
989.0532822361747
 30
0.0
 41
30.0
 42
30.0
 43
30.0
 50
180.0
  0
INSERT
  5
3683
330
32CB
100
AcDbEntity
  8
実形
 62
     0
370
    15
100
AcDbBlockReference
  2
_DotSmall
 10
1759.559094235713
 20
989.0532822361747
 30
0.0
 41
30.0
 42
30.0
 43
30.0
  0
MTEXT
  5
3684
330
32CB
100
AcDbEntity
  8
実形
 62
     0
100
AcDbMText
 10
1499.559094235713
 20
1007.803282236174
 30
0.0
 40
25.0
 41
0.0
 71
     5
 72
     1
  1
520
 73
     1
 44
1.0
1001
ACAD
1000
MTEXTBEGIN
1070
    73
1070
     1
1070
    44
1040
1.0
1070
    74
1070
     0
1000
MTEXTEND
  0
POINT
  5
3685
330
32CB
100
AcDbEntity
  8
Defpoints
 62
     0
100
AcDbPoint
 10
1239.559094235713
 20
1098.101467827458
 30
0.0
  0
POINT
  5
3686
330
32CB
100
AcDbEntity
  8
Defpoints
 62
     0
100
AcDbPoint
 10
1759.559094235713
 20
1098.101467827458
 30
0.0
  0
POINT
  5
3687
330
32CB
100
AcDbEntity
  8
Defpoints
 62
     0
100
AcDbPoint
 10
1759.559094235713
 20
989.0532822361747
 30
0.0
  0
ENDBLK
  5
32D6
330
32CB
100
AcDbEntity
  8
0
 62
     3
100
AcDbBlockEnd
  0
BLOCK
  5
32ED
330
32E1
100
AcDbEntity
  8
0
 62
     3
100
AcDbBlockBegin
  2
*D55
 70
     1
 10
0.0
 20
0.0
 30
0.0
  3
*D55
  1

  0
LINE
  5
3688
330
32E1
100
AcDbEntity
  8
実形
 62
     0
370
    15
100
AcDbLine
 10
939.8692718326328
 20
1090.751824604182
 30
0.0
 11
939.8692718326328
 21
1036.807958926578
 31
0.0
  0
LINE
  5
3689
330
32E1
100
AcDbEntity
  8
実形
 62
     0
370
    15
100
AcDbLine
 10
904.5590942357129
 20
1090.922440018559
 30
0.0
 11
904.5590942357129
 21
1036.807958926578
 31
0.0
  0
LINE
  5
368A
330
32E1
100
AcDbEntity
  8
実形
 62
     0
370
    15
100
AcDbLine
 10
939.8692718326328
 20
1036.807958926578
 30
0.0
 11
904.5590942357129
 21
1036.807958926578
 31
0.0
  0
MTEXT
  5
368B
330
32E1
100
AcDbEntity
  8
実形
 62
     0
100
AcDbMText
 10
876.1844795358193
 20
1055.409267455577
 30
0.0
 40
25.0
 41
0.0
 71
     5
 72
     1
  1
35
 73
     1
 44
1.0
1001
ACAD
1000
MTEXTBEGIN
1070
    73
1070
     1
1070
    44
1040
1.0
1070
    74
1070
     0
1000
MTEXTEND
  0
INSERT
  5
368C
330
32E1
100
AcDbEntity
  8
実形
 62
     0
370
    15
100
AcDbBlockReference
  2
_DotSmall
 10
939.8692718326328
 20
1036.807958926578
 30
0.0
 41
30.0
 42
30.0
 43
30.0
  0
INSERT
  5
368D
330
32E1
100
AcDbEntity
  8
実形
 62
     0
370
    15
100
AcDbBlockReference
  2
_DotSmall
 10
904.5590942357129
 20
1036.807958926578
 30
0.0
 41
30.0
 42
30.0
 43
30.0
 50
180.0
  0
POINT
  5
368E
330
32E1
100
AcDbEntity
  8
Defpoints
 62
     0
100
AcDbPoint
 10
939.8692718326328
 20
1155.751824604182
 30
0.0
  0
POINT
  5
368F
330
32E1
100
AcDbEntity
  8
Defpoints
 62
     0
100
AcDbPoint
 10
904.5590942357129
 20
1155.922440018559
 30
0.0
  0
POINT
  5
3690
330
32E1
100
AcDbEntity
  8
Defpoints
 62
     0
100
AcDbPoint
 10
904.5590942357129
 20
1036.807958926578
 30
0.0
  0
ENDBLK
  5
32EE
330
32E1
100
AcDbEntity
  8
0
 62
     3
100
AcDbBlockEnd
  0
BLOCK
  5
3332
330
3328
100
AcDbEntity
  8
0
 62
     3
100
AcDbBlockBegin
  2
*D56
 70
     1
 10
0.0
 20
0.0
 30
0.0
  3
*D56
  1

  0
LINE
  5
36D9
330
3328
100
AcDbEntity
  8
実形
 62
     0
370
    15
100
AcDbLine
 10
819.3081791977492
 20
1178.86010153411
 30
0.0
 11
785.2293600020621
 21
1178.86010153411
 31
0.0
  0
LINE
  5
36DA
330
3328
100
AcDbEntity
  8
実形
 62
     0
370
    15
100
AcDbLine
 10
819.3081791977492
 20
1143.86010153411
 30
0.0
 11
785.2293600020621
 21
1143.86010153411
 31
0.0
  0
LINE
  5
36DB
330
3328
100
AcDbEntity
  8
実形
 62
     0
370
    15
100
AcDbLine
 10
785.2293600020621
 20
1178.86010153411
 30
0.0
 11
785.2293600020621
 21
1143.86010153411
 31
0.0
  0
MTEXT
  5
36DC
330
3328
100
AcDbEntity
  8
実形
 62
     0
100
AcDbMText
 10
757.2433189471503
 20
1176.61010153411
 30
0.0
 40
25.0
 41
0.0
 71
     5
 72
     1
  1
35
 11
0.0000000000000001
 21
1.0
 31
0.0
 73
     1
 44
1.0
1001
ACAD
1000
MTEXTBEGIN
1070
    73
1070
     1
1070
    44
1040
1.0
1070
    74
1070
     0
1000
MTEXTEND
  0
INSERT
  5
36DD
330
3328
100
AcDbEntity
  8
実形
 62
     0
370
    15
100
AcDbBlockReference
  2
_DotSmall
 10
785.2293600020621
 20
1178.86010153411
 30
0.0
 41
30.0
 42
30.0
 43
30.0
 50
90.0
  0
INSERT
  5
36DE
330
3328
100
AcDbEntity
  8
実形
 62
     0
370
    15
100
AcDbBlockReference
  2
_DotSmall
 10
785.2293600020621
 20
1143.86010153411
 30
0.0
 41
30.0
 42
30.0
 43
30.0
 50
270.0
  0
POINT
  5
36DF
330
3328
100
AcDbEntity
  8
Defpoints
 62
     0
100
AcDbPoint
 10
884.3081791977493
 20
1178.86010153411
 30
0.0
  0
POINT
  5
36E0
330
3328
100
AcDbEntity
  8
Defpoints
 62
     0
100
AcDbPoint
 10
884.3081791977493
 20
1143.86010153411
 30
0.0
  0
POINT
  5
36E1
330
3328
100
AcDbEntity
  8
Defpoints
 62
     0
100
AcDbPoint
 10
785.2293600020621
 20
1143.86010153411
 30
0.0
  0
ENDBLK
  5
3333
330
3328
100
AcDbEntity
  8
0
 62
     3
100
AcDbBlockEnd
  0
BLOCK
  5
3340
330
3336
100
AcDbEntity
  8
0
 62
     3
100
AcDbBlockBegin
  2
*D57
 70
     1
 10
0.0
 20
0.0
 30
0.0
  3
*D57
  1

  0
LINE
  5
36E2
330
3336
100
AcDbEntity
  8
実形
 62
     0
370
    15
100
AcDbLine
 10
859.579650924882
 20
1618.03806857966
 30
0.0
 11
785.2293600020622
 21
1618.03806857966
 31
0.0
  0
LINE
  5
36E3
330
3336
100
AcDbEntity
  8
実形
 62
     0
370
    15
100
AcDbLine
 10
821.0957238460697
 20
1178.86010153411
 30
0.0
 11
785.2293600020621
 21
1178.86010153411
 31
0.0
  0
LINE
  5
36E4
330
3336
100
AcDbEntity
  8
実形
 62
     0
370
    15
100
AcDbLine
 10
785.2293600020622
 20
1618.03806857966
 30
0.0
 11
785.2293600020621
 21
1178.86010153411
 31
0.0
  0
INSERT
  5
36E5
330
3336
100
AcDbEntity
  8
実形
 62
     0
370
    15
100
AcDbBlockReference
  2
_DotSmall
 10
785.2293600020622
 20
1618.03806857966
 30
0.0
 41
30.0
 42
30.0
 43
30.0
 50
90.0
  0
INSERT
  5
36E6
330
3336
100
AcDbEntity
  8
実形
 62
     0
370
    15
100
AcDbBlockReference
  2
_DotSmall
 10
785.2293600020621
 20
1178.86010153411
 30
0.0
 41
30.0
 42
30.0
 43
30.0
 50
270.0
  0
MTEXT
  5
36E7
330
3336
100
AcDbEntity
  8
実形
 62
     0
100
AcDbMText
 10
766.479360002062
 20
1398.449085056885
 30
0.0
 40
25.0
 41
0.0
 71
     5
 72
     1
  1
440
 11
0.0000000000000001
 21
1.0
 31
0.0
 73
     1
 44
1.0
1001
ACAD
1000
MTEXTBEGIN
1070
    73
1070
     1
1070
    44
1040
1.0
1070
    74
1070
     0
1000
MTEXTEND
  0
POINT
  5
36E8
330
3336
100
AcDbEntity
  8
Defpoints
 62
     0
100
AcDbPoint
 10
924.5796509248821
 20
1618.03806857966
 30
0.0
  0
POINT
  5
36E9
330
3336
100
AcDbEntity
  8
Defpoints
 62
     0
100
AcDbPoint
 10
886.0957238460697
 20
1178.86010153411
 30
0.0
  0
POINT
  5
36EA
330
3336
100
AcDbEntity
  8
Defpoints
 62
     0
100
AcDbPoint
 10
785.2293600020621
 20
1178.86010153411
 30
0.0
  0
ENDBLK
  5
3341
330
3336
100
AcDbEntity
  8
0
 62
     3
100
AcDbBlockEnd
  0
BLOCK
  5
3374
330
336A
100
AcDbEntity
  8
0
 62
     3
100
AcDbBlockBegin
  2
*D58
 70
     1
 10
0.0
 20
0.0
 30
0.0
  3
*D58
  1

  0
LINE
  5
36EB
330
336A
100
AcDbEntity
  8
実形
 62
     0
370
    15
100
AcDbLine
 10
819.3081791977492
 20
1683.86010153411
 30
0.0
 11
785.2293600020622
 21
1683.86010153411
 31
0.0
  0
LINE
  5
36EC
330
336A
100
AcDbEntity
  8
実形
 62
     0
370
    15
100
AcDbLine
 10
812.699498370268
 20
1618.03806857966
 30
0.0
 11
785.2293600020622
 21
1618.03806857966
 31
0.0
  0
LINE
  5
36ED
330
336A
100
AcDbEntity
  8
実形
 62
     0
370
    15
100
AcDbLine
 10
785.2293600020622
 20
1683.86010153411
 30
0.0
 11
785.2293600020622
 21
1618.03806857966
 31
0.0
  0
INSERT
  5
36EE
330
336A
100
AcDbEntity
  8
実形
 62
     0
370
    15
100
AcDbBlockReference
  2
_DotSmall
 10
785.2293600020622
 20
1683.86010153411
 30
0.0
 41
30.0
 42
30.0
 43
30.0
 50
90.0
  0
INSERT
  5
36EF
330
336A
100
AcDbEntity
  8
実形
 62
     0
370
    15
100
AcDbBlockReference
  2
_DotSmall
 10
785.2293600020622
 20
1618.03806857966
 30
0.0
 41
30.0
 42
30.0
 43
30.0
 50
270.0
  0
MTEXT
  5
36F0
330
336A
100
AcDbEntity
  8
実形
 62
     0
100
AcDbMText
 10
766.479360002062
 20
1650.949085056885
 30
0.0
 40
25.0
 41
0.0
 71
     5
 72
     1
  1
65
 11
0.0000000000000001
 21
1.0
 31
0.0
 73
     1
 44
1.0
1001
ACAD
1000
MTEXTBEGIN
1070
    73
1070
     1
1070
    44
1040
1.0
1070
    74
1070
     0
1000
MTEXTEND
  0
POINT
  5
36F1
330
336A
100
AcDbEntity
  8
Defpoints
 62
     0
100
AcDbPoint
 10
884.3081791977493
 20
1683.86010153411
 30
0.0
  0
POINT
  5
36F2
330
336A
100
AcDbEntity
  8
Defpoints
 62
     0
100
AcDbPoint
 10
877.699498370268
 20
1618.03806857966
 30
0.0
  0
POINT
  5
36F3
330
336A
100
AcDbEntity
  8
Defpoints
 62
     0
100
AcDbPoint
 10
785.2293600020622
 20
1618.03806857966
 30
0.0
  0
ENDBLK
  5
3375
330
336A
100
AcDbEntity
  8
0
 62
     3
100
AcDbBlockEnd
  0
BLOCK
  5
33B4
330
33AA
100
AcDbEntity
  8
0
 62
     3
100
AcDbBlockBegin
  2
*D59
 70
     1
 10
0.0
 20
0.0
 30
0.0
  3
*D59
  1

  0
LINE
  5
36F4
330
33AA
100
AcDbEntity
  8
実形
 62
     0
370
    15
100
AcDbLine
 10
877.699498370268
 20
1618.03806857966
 30
0.0
 11
853.3328062951877
 21
1618.03806857966
 31
0.0
  0
LINE
  5
36F5
330
33AA
100
AcDbEntity
  8
実形
 62
     0
370
    15
100
AcDbLine
 10
877.699498370268
 20
1468.860101534109
 30
0.0
 11
853.3328062951877
 21
1468.860101534109
 31
0.0
  0
LINE
  5
36F6
330
33AA
100
AcDbEntity
  8
実形
 62
     0
370
    15
100
AcDbLine
 10
853.3328062951877
 20
1618.03806857966
 30
0.0
 11
853.3328062951877
 21
1468.860101534109
 31
0.0
  0
INSERT
  5
36F7
330
33AA
100
AcDbEntity
  8
実形
 62
     0
370
    15
100
AcDbBlockReference
  2
_DotSmall
 10
853.3328062951877
 20
1618.03806857966
 30
0.0
 41
30.0
 42
30.0
 43
30.0
 50
90.0
  0
INSERT
  5
36F8
330
33AA
100
AcDbEntity
  8
実形
 62
     0
370
    15
100
AcDbBlockReference
  2
_DotSmall
 10
853.3328062951877
 20
1468.860101534109
 30
0.0
 41
30.0
 42
30.0
 43
30.0
 50
270.0
  0
MTEXT
  5
36F9
330
33AA
100
AcDbEntity
  8
実形
 62
     0
100
AcDbMText
 10
834.5828062951875
 20
1543.449085056885
 30
0.0
 40
25.0
 41
0.0
 71
     5
 72
     1
  1
150
 11
0.0000000000000001
 21
1.0
 31
0.0
 73
     1
 44
1.0
1001
ACAD
1000
MTEXTBEGIN
1070
    73
1070
     1
1070
    44
1040
1.0
1070
    74
1070
     0
1000
MTEXTEND
  0
POINT
  5
36FA
330
33AA
100
AcDbEntity
  8
Defpoints
 62
     0
100
AcDbPoint
 10
942.699498370268
 20
1618.03806857966
 30
0.0
  0
POINT
  5
36FB
330
33AA
100
AcDbEntity
  8
Defpoints
 62
     0
100
AcDbPoint
 10
942.699498370268
 20
1468.860101534109
 30
0.0
  0
POINT
  5
36FC
330
33AA
100
AcDbEntity
  8
Defpoints
 62
     0
100
AcDbPoint
 10
853.3328062951877
 20
1468.860101534109
 30
0.0
  0
ENDBLK
  5
33B5
330
33AA
100
AcDbEntity
  8
0
 62
     3
100
AcDbBlockEnd
  0
BLOCK
  5
3425
330
341B
100
AcDbEntity
  8
0
 62
     3
100
AcDbBlockBegin
  2
*D60
 70
     1
 10
0.0
 20
0.0
 30
0.0
  3
*D60
  1

  0
LINE
  5
36B5
330
341B
100
AcDbEntity
  8
実形
 62
     0
370
    15
100
AcDbLine
 10
904.5590942357129
 20
1090.86010153411
 30
0.0
 11
904.5590942357129
 21
932.1143032368091
 31
0.0
  0
LINE
  5
36B6
330
341B
100
AcDbEntity
  8
実形
 62
     0
370
    15
100
AcDbLine
 10
1794.559094235713
 20
1090.922440018559
 30
0.0
 11
1794.559094235713
 21
932.1143032368091
 31
0.0
  0
LINE
  5
36B7
330
341B
100
AcDbEntity
  8
実形
 62
     0
370
    15
100
AcDbLine
 10
904.5590942357129
 20
932.1143032368091
 30
0.0
 11
1794.559094235713
 21
932.1143032368091
 31
0.0
  0
INSERT
  5
36B8
330
341B
100
AcDbEntity
  8
実形
 62
     0
370
    15
100
AcDbBlockReference
  2
_DotSmall
 10
904.5590942357129
 20
932.1143032368091
 30
0.0
 41
30.0
 42
30.0
 43
30.0
 50
180.0
  0
INSERT
  5
36B9
330
341B
100
AcDbEntity
  8
実形
 62
     0
370
    15
100
AcDbBlockReference
  2
_DotSmall
 10
1794.559094235713
 20
932.1143032368091
 30
0.0
 41
30.0
 42
30.0
 43
30.0
  0
MTEXT
  5
36BA
330
341B
100
AcDbEntity
  8
実形
 62
     0
100
AcDbMText
 10
1349.559094235713
 20
950.8643032368091
 30
0.0
 40
25.0
 41
0.0
 71
     5
 72
     1
  1
890
 73
     1
 44
1.0
1001
ACAD
1000
MTEXTBEGIN
1070
    73
1070
     1
1070
    44
1040
1.0
1070
    74
1070
     0
1000
MTEXTEND
  0
POINT
  5
36BB
330
341B
100
AcDbEntity
  8
Defpoints
 62
     0
100
AcDbPoint
 10
904.5590942357129
 20
1155.86010153411
 30
0.0
  0
POINT
  5
36BC
330
341B
100
AcDbEntity
  8
Defpoints
 62
     0
100
AcDbPoint
 10
1794.559094235713
 20
1155.922440018559
 30
0.0
  0
POINT
  5
36BD
330
341B
100
AcDbEntity
  8
Defpoints
 62
     0
100
AcDbPoint
 10
1794.559094235713
 20
932.1143032368091
 30
0.0
  0
ENDBLK
  5
3426
330
341B
100
AcDbEntity
  8
0
 62
     3
100
AcDbBlockEnd
  0
BLOCK
  5
37A3
330
3799
100
AcDbEntity
  8
0
 62
     3
100
AcDbBlockBegin
  2
*D62
 70
     1
 10
0.0
 20
0.0
 30
0.0
  3
*D62
  1

  0
LINE
  5
383F
330
3799
100
AcDbEntity
  8
実形
 62
     0
370
    15
100
AcDbLine
 10
1369.559094235713
 20
1698.954046554123
 30
0.0
 11
1369.559094235713
 21
1716.48343459957
 31
0.0
  0
LINE
  5
3840
330
3799
100
AcDbEntity
  8
実形
 62
     0
370
    15
100
AcDbLine
 10
1629.559094235713
 20
1697.366939976978
 30
0.0
 11
1629.559094235713
 21
1716.48343459957
 31
0.0
  0
LINE
  5
3841
330
3799
100
AcDbEntity
  8
実形
 62
     0
370
    15
100
AcDbLine
 10
1369.559094235713
 20
1716.48343459957
 30
0.0
 11
1629.559094235713
 21
1716.48343459957
 31
0.0
  0
INSERT
  5
3842
330
3799
100
AcDbEntity
  8
実形
 62
     0
370
    15
100
AcDbBlockReference
  2
_DotSmall
 10
1369.559094235713
 20
1716.48343459957
 30
0.0
 41
30.0
 42
30.0
 43
30.0
 50
180.0
  0
INSERT
  5
3843
330
3799
100
AcDbEntity
  8
実形
 62
     0
370
    15
100
AcDbBlockReference
  2
_DotSmall
 10
1629.559094235713
 20
1716.48343459957
 30
0.0
 41
30.0
 42
30.0
 43
30.0
  0
MTEXT
  5
3844
330
3799
100
AcDbEntity
  8
実形
 62
     0
100
AcDbMText
 10
1499.559094235713
 20
1735.233434599569
 30
0.0
 40
25.0
 41
0.0
 71
     5
 72
     1
  1
260
 73
     1
 44
1.0
1001
ACAD
1000
MTEXTBEGIN
1070
    73
1070
     1
1070
    44
1040
1.0
1070
    74
1070
     0
1000
MTEXTEND
  0
POINT
  5
3845
330
3799
100
AcDbEntity
  8
Defpoints
 62
     0
100
AcDbPoint
 10
1369.559094235713
 20
1633.954046554123
 30
0.0
  0
POINT
  5
3846
330
3799
100
AcDbEntity
  8
Defpoints
 62
     0
100
AcDbPoint
 10
1629.559094235713
 20
1632.366939976979
 30
0.0
  0
POINT
  5
3847
330
3799
100
AcDbEntity
  8
Defpoints
 62
     0
100
AcDbPoint
 10
1629.559094235713
 20
1716.48343459957
 30
0.0
  0
ENDBLK
  5
37A4
330
3799
100
AcDbEntity
  8
0
 62
     3
100
AcDbBlockEnd
  0
BLOCK
  5
37EC
330
37E2
100
AcDbEntity
  8
0
 62
     3
100
AcDbBlockBegin
  2
*D63
 70
     1
 10
0.0
 20
0.0
 30
0.0
  3
*D63
  1

  0
LINE
  5
3848
330
37E2
100
AcDbEntity
  8
実形
 62
     0
370
    15
100
AcDbLine
 10
904.5590942357129
 20
1768.761631375324
 30
0.0
 11
904.5590942357129
 21
1804.21122774347
 31
0.0
  0
LINE
  5
3849
330
37E2
100
AcDbEntity
  8
実形
 62
     0
370
    15
100
AcDbLine
 10
1067.059094235713
 20
1768.761631375324
 30
0.0
 11
1067.059094235713
 21
1804.21122774347
 31
0.0
  0
LINE
  5
384A
330
37E2
100
AcDbEntity
  8
実形
 62
     0
370
    15
100
AcDbLine
 10
904.5590942357129
 20
1804.21122774347
 30
0.0
 11
1067.059094235713
 21
1804.21122774347
 31
0.0
  0
INSERT
  5
384B
330
37E2
100
AcDbEntity
  8
実形
 62
     0
370
    15
100
AcDbBlockReference
  2
_DotSmall
 10
904.5590942357129
 20
1804.21122774347
 30
0.0
 41
30.0
 42
30.0
 43
30.0
 50
180.0
  0
INSERT
  5
384C
330
37E2
100
AcDbEntity
  8
実形
 62
     0
370
    15
100
AcDbBlockReference
  2
_DotSmall
 10
1067.059094235713
 20
1804.21122774347
 30
0.0
 41
30.0
 42
30.0
 43
30.0
  0
MTEXT
  5
384D
330
37E2
100
AcDbEntity
  8
実形
 62
     0
100
AcDbMText
 10
985.8090942357129
 20
1822.96122774347
 30
0.0
 40
25.0
 41
0.0
 71
     5
 72
     1
  1
162.5
 73
     1
 44
1.0
1001
ACAD
1000
MTEXTBEGIN
1070
    73
1070
     1
1070
    44
1040
1.0
1070
    74
1070
     0
1000
MTEXTEND
  0
POINT
  5
384E
330
37E2
100
AcDbEntity
  8
Defpoints
 62
     0
100
AcDbPoint
 10
904.5590942357129
 20
1703.761631375324
 30
0.0
  0
POINT
  5
384F
330
37E2
100
AcDbEntity
  8
Defpoints
 62
     0
100
AcDbPoint
 10
1067.059094235713
 20
1703.761631375324
 30
0.0
  0
POINT
  5
3850
330
37E2
100
AcDbEntity
  8
Defpoints
 62
     0
100
AcDbPoint
 10
1067.059094235713
 20
1804.21122774347
 30
0.0
  0
ENDBLK
  5
37ED
330
37E2
100
AcDbEntity
  8
0
 62
     3
100
AcDbBlockEnd
  0
BLOCK
  5
37F9
330
37EF
100
AcDbEntity
  8
0
 62
     3
100
AcDbBlockBegin
  2
*D64
 70
     1
 10
0.0
 20
0.0
 30
0.0
  3
*D64
  1

  0
LINE
  5
3851
330
37EF
100
AcDbEntity
  8
実形
 62
     0
370
    15
100
AcDbLine
 10
1067.059094235713
 20
1768.761631375324
 30
0.0
 11
1067.059094235713
 21
1804.21122774347
 31
0.0
  0
LINE
  5
3852
330
37EF
100
AcDbEntity
  8
実形
 62
     0
370
    15
100
AcDbLine
 10
1499.559094235713
 20
1768.761631375324
 30
0.0
 11
1499.559094235713
 21
1804.21122774347
 31
0.0
  0
LINE
  5
3853
330
37EF
100
AcDbEntity
  8
実形
 62
     0
370
    15
100
AcDbLine
 10
1067.059094235713
 20
1804.21122774347
 30
0.0
 11
1499.559094235713
 21
1804.21122774347
 31
0.0
  0
INSERT
  5
3854
330
37EF
100
AcDbEntity
  8
実形
 62
     0
370
    15
100
AcDbBlockReference
  2
_DotSmall
 10
1067.059094235713
 20
1804.21122774347
 30
0.0
 41
30.0
 42
30.0
 43
30.0
 50
180.0
  0
INSERT
  5
3855
330
37EF
100
AcDbEntity
  8
実形
 62
     0
370
    15
100
AcDbBlockReference
  2
_DotSmall
 10
1499.559094235713
 20
1804.21122774347
 30
0.0
 41
30.0
 42
30.0
 43
30.0
  0
MTEXT
  5
3856
330
37EF
100
AcDbEntity
  8
実形
 62
     0
100
AcDbMText
 10
1283.309094235713
 20
1822.96122774347
 30
0.0
 40
25.0
 41
0.0
 71
     5
 72
     1
  1
432.5
 73
     1
 44
1.0
1001
ACAD
1000
MTEXTBEGIN
1070
    73
1070
     1
1070
    44
1040
1.0
1070
    74
1070
     0
1000
MTEXTEND
  0
POINT
  5
3857
330
37EF
100
AcDbEntity
  8
Defpoints
 62
     0
100
AcDbPoint
 10
1067.059094235713
 20
1703.761631375324
 30
0.0
  0
POINT
  5
3858
330
37EF
100
AcDbEntity
  8
Defpoints
 62
     0
100
AcDbPoint
 10
1499.559094235713
 20
1703.761631375324
 30
0.0
  0
POINT
  5
3859
330
37EF
100
AcDbEntity
  8
Defpoints
 62
     0
100
AcDbPoint
 10
1499.559094235713
 20
1804.21122774347
 30
0.0
  0
ENDBLK
  5
37FA
330
37EF
100
AcDbEntity
  8
0
 62
     3
100
AcDbBlockEnd
  0
BLOCK
  5
3806
330
37FC
100
AcDbEntity
  8
0
 62
     3
100
AcDbBlockBegin
  2
*D65
 70
     1
 10
0.0
 20
0.0
 30
0.0
  3
*D65
  1

  0
LINE
  5
385A
330
37FC
100
AcDbEntity
  8
実形
 62
     0
370
    15
100
AcDbLine
 10
1499.559094235713
 20
1768.761631375324
 30
0.0
 11
1499.559094235713
 21
1804.21122774347
 31
0.0
  0
LINE
  5
385B
330
37FC
100
AcDbEntity
  8
実形
 62
     0
370
    15
100
AcDbLine
 10
1794.559094235713
 20
1768.761631375324
 30
0.0
 11
1794.559094235713
 21
1804.21122774347
 31
0.0
  0
LINE
  5
385C
330
37FC
100
AcDbEntity
  8
実形
 62
     0
370
    15
100
AcDbLine
 10
1499.559094235713
 20
1804.21122774347
 30
0.0
 11
1794.559094235713
 21
1804.21122774347
 31
0.0
  0
INSERT
  5
385D
330
37FC
100
AcDbEntity
  8
実形
 62
     0
370
    15
100
AcDbBlockReference
  2
_DotSmall
 10
1499.559094235713
 20
1804.21122774347
 30
0.0
 41
30.0
 42
30.0
 43
30.0
 50
180.0
  0
INSERT
  5
385E
330
37FC
100
AcDbEntity
  8
実形
 62
     0
370
    15
100
AcDbBlockReference
  2
_DotSmall
 10
1794.559094235713
 20
1804.21122774347
 30
0.0
 41
30.0
 42
30.0
 43
30.0
  0
MTEXT
  5
385F
330
37FC
100
AcDbEntity
  8
実形
 62
     0
100
AcDbMText
 10
1647.059094235713
 20
1822.96122774347
 30
0.0
 40
25.0
 41
0.0
 71
     5
 72
     1
  1
295
 73
     1
 44
1.0
1001
ACAD
1000
MTEXTBEGIN
1070
    73
1070
     1
1070
    44
1040
1.0
1070
    74
1070
     0
1000
MTEXTEND
  0
POINT
  5
3860
330
37FC
100
AcDbEntity
  8
Defpoints
 62
     0
100
AcDbPoint
 10
1499.559094235713
 20
1703.761631375324
 30
0.0
  0
POINT
  5
3861
330
37FC
100
AcDbEntity
  8
Defpoints
 62
     0
100
AcDbPoint
 10
1794.559094235713
 20
1703.761631375324
 30
0.0
  0
POINT
  5
3862
330
37FC
100
AcDbEntity
  8
Defpoints
 62
     0
100
AcDbPoint
 10
1794.559094235713
 20
1804.21122774347
 30
0.0
  0
ENDBLK
  5
3807
330
37FC
100
AcDbEntity
  8
0
 62
     3
100
AcDbBlockEnd
  0
ENDSEC
  0
SECTION
  2
ENTITIES
  0
LINE
  5
9C
330
1F
100
AcDbEntity
  8
補助
100
AcDbLine
 10
111.0
 20
4.0
 30
0.0
 11
2784.0
 21
4.0
 31
0.0
  0
LINE
  5
A0
330
1F
100
AcDbEntity
  8
補助
100
AcDbLine
 10
2784.0
 20
2024.0
 30
0.0
 11
111.0
 21
2024.0
 31
0.0
  0
LINE
  5
A5
330
1F
100
AcDbEntity
  8
補助
100
AcDbLine
 10
2784.0
 20
4.0
 30
0.0
 11
2784.0
 21
2024.0
 31
0.0
  0
LINE
  5
A8
330
1F
100
AcDbEntity
  8
補助
100
AcDbLine
 10
2184.0
 20
69.0
 30
0.0
 11
2184.0
 21
134.0
 31
0.0
  0
LINE
  5
A9
330
1F
100
AcDbEntity
  8
補助
100
AcDbLine
 10
2184.0
 20
69.0
 30
0.0
 11
2784.0
 21
69.0
 31
0.0
  0
LINE
  5
AA
330
1F
100
AcDbEntity
  8
補助
100
AcDbLine
 10
2064.0
 20
134.0
 30
0.0
 11
2784.0
 21
134.0
 31
0.0
  0
LINE
  5
AB
330
1F
100
AcDbEntity
  8
補助
100
AcDbLine
 10
2064.0
 20
199.0
 30
0.0
 11
2784.0
 21
199.0
 31
0.0
  0
LINE
  5
AD
330
1F
100
AcDbEntity
  8
補助
100
AcDbLine
 10
2784.0
 20
4.0
 30
0.0
 11
2784.0
 21
69.0
 31
0.0
  0
LINE
  5
260
330
1F
100
AcDbEntity
  8
0
100
AcDbLine
 10
1759.559094235713
 20
1258.86010153411
 30
0.0
 11
1759.559094235713
 21
1568.860101534109
 31
0.0
  0
LINE
  5
262
330
1F
100
AcDbEntity
  8
0
100
AcDbLine
 10
1239.559094235713
 20
1503.86010153411
 30
0.0
 11
1239.559094235713
 21
1258.86010153411
 31
0.0
  0
LINE
  5
32D
330
1F
100
AcDbEntity
  8
0
100
AcDbLine
 10
1759.559094235713
 20
1258.86010153411
 30
0.0
 11
1759.559094235713
 21
1458.86010153411
 31
0.0
  0
CIRCLE
  5
334
330
1F
100
AcDbEntity
  8
0
100
AcDbCircle
 10
1499.559094235713
 20
1488.86010153411
 30
0.0
 40
79.0
  0
CIRCLE
  5
335
330
1F
100
AcDbEntity
  8
0
100
AcDbCircle
 10
1499.559094235713
 20
1488.86010153411
 30
0.0
 40
90.5
  0
DIMENSION
  5
384
330
1F
100
AcDbEntity
  8
0
100
AcDbDimension
  2
*D4
 10
1656.021283209659
 20
1648.86010153411
 30
0.0
 11
1656.021283209659
 21
1533.410495785237
 31
0.0
 70
   160
 71
     5
 42
159.9999999999998
  3
ISO-25
100
AcDbAlignedDimension
 13
1557.174064690905
 23
1488.86010153411
 33
0.0
 14
1513.31753207244
 24
1648.86010153411
 34
0.0
 50
90.0
100
AcDbRotatedDimension
  0
LINE
  5
39A
330
1F
100
AcDbEntity
  8
Cen
 48
0.8
100
AcDbLine
 10
1633.666655914791
 20
1488.86010153411
 30
0.0
 11
1365.451532556634
 21
1488.86010153411
 31
0.0
  0
LINE
  5
39B
330
1F
100
AcDbEntity
  8
Cen
 48
0.8
100
AcDbLine
 10
1499.559094235713
 20
1366.382700623617
 30
0.0
 11
1499.559094235713
 21
1593.337502444603
 31
0.0
  0
LINE
  5
3DD
330
1F
100
AcDbEntity
  8
Cen
100
AcDbLine
 10
1629.559094235713
 20
1706.855344584566
 30
0.0
 11
1629.559094235713
 21
1601.86010153411
 31
0.0
  0
LINE
  5
3DE
330
1F
100
AcDbEntity
  8
Cen
100
AcDbLine
 10
1369.559094235713
 20
1699.328964379074
 30
0.0
 11
1369.559094235713
 21
1601.86010153411
 31
0.0
  0
CIRCLE
  5
3DF
330
1F
100
AcDbEntity
  8
Cen
100
AcDbCircle
 10
1629.559094235713
 20
1633.86010153411
 30
0.0
 40
6.0
  0
CIRCLE
  5
3E0
330
1F
100
AcDbEntity
  8
Cen
100
AcDbCircle
 10
1369.559094235713
 20
1633.86010153411
 30
0.0
 40
6.0
  0
DIMENSION
  5
473
330
1F
100
AcDbEntity
  8
0
100
AcDbDimension
  2
*D6
 10
1420.059094235712
 20
486.8716730531696
 30
0.0
 11
1499.559094235713
 21
505.6216730531696
 31
0.0
 70
    32
  1
159
 71
     5
 42
159.0000000000002
  3
ISO-25
100
AcDbAlignedDimension
 13
1579.059094235713
 23
608.2661477511846
 33
0.0
 14
1420.059094235712
 24
608.2661477511849
 34
0.0
100
AcDbRotatedDimension
  0
DIMENSION
  5
480
330
1F
100
AcDbEntity
  8
0
100
AcDbDimension
  2
*D7
 10
1409.059094235713
 20
717.4191722891564
 30
0.0
 11
1499.559094235713
 21
736.1691722891564
 31
0.0
 70
    32
 71
     5
 42
181.0
  3
ISO-25
100
AcDbAlignedDimension
 13
1590.059094235713
 23
615.2661477511847
 33
0.0
 14
1409.059094235713
 24
615.2661477511847
 34
0.0
100
AcDbRotatedDimension
  0
LINE
  5
48E
330
1F
100
AcDbEntity
  8
Cen
100
AcDbLine
 10
1499.559094235713
 20
698.5717397064199
 30
0.0
 11
1499.559094235713
 21
584.0116058060602
 31
0.0
  0
LINE
  5
48F
330
1F
100
AcDbEntity
  8
0
100
AcDbLine
 10
2141.91476544398
 20
1175.86010153411
 30
0.0
 11
2141.91476544398
 21
1161.86010153411
 31
0.0
  0
LINE
  5
49D
330
1F
100
AcDbEntity
  8
0
100
AcDbLine
 10
2156.91476544398
 20
1190.86010153411
 30
0.0
 11
2156.91476544398
 21
1181.86010153411
 31
0.0
  0
LINE
  5
49E
330
1F
100
AcDbEntity
  8
0
100
AcDbLine
 10
2331.914765443981
 20
1538.860101534109
 30
0.0
 11
2331.91476544398
 21
1399.235101534114
 31
0.0
  0
LINE
  5
4AE
330
1F
100
AcDbEntity
  8
Cen
100
AcDbLine
 10
2237.320935663773
 20
1487.86010153411
 30
0.0
 11
2367.975347899095
 21
1487.86010153411
 31
0.0
  0
LEADER
  5
50F
330
1F
100
AcDbEntity
  8
0
100
AcDbLeader
  3
ISO-25
 40
25.0
 41
41.66666666666666
 76
     2
 10
1637.07044201537
 20
1639.80634227478
 30
0.0
 10
1661.403470657726
 20
1725.216116655412
 30
0.0
211
-1.0
221
0.0
231
0.0
210
0.0
220
0.0
230
-1.0
213
0.0
223
12.5
233
0.0
1001
ACAD
1000
DSTYLE
1002
{
1070
    41
1040
25.0
1070
   147
1040
6.25
1070
    77
1070
     0
1070
    73
1070
     1
1070
    74
1070
     1
1070
   342
1005
DA
1002
}
  0
TEXT
  5
511
330
1F
100
AcDbEntity
  8
0
100
AcDbText
 10
1651.923960999172
 20
1737.825042911197
 30
0.0
 40
25.0
  1
12%%C
 72
     2
 11
1710.257294332506
 21
1734.491709577864
 31
0.0
100
AcDbText
 73
     1
  0
MTEXT
  5
532
330
1F
100
AcDbEntity
  8
0
100
AcDbMText
 10
1469.226616777811
 20
1181.110374981098
 30
0.0
 40
25.0
 41
0.0
 71
     9
 72
     1
  1

 73
     1
 44
1.0
1001
ACAD
1000
MTEXTBEGIN
1070
    73
1070
     1
1070
    44
1040
1.0
1070
    74
1070
     0
1000
MTEXTEND
  0
LEADER
  5
533
330
1F
100
AcDbEntity
  8
0
100
AcDbLeader
  3
ISO-25
 40
25.0
 41
16.66666666666666
 76
     2
 10
1728.146938920238
 20
1197.420589173031
 30
0.0
 10
1630.598919592211
 20
1257.149685968043
 30
0.0
213
-97.31675022588753
223
44.53196128345098
233
0.0
1001
ACAD
1000
DSTYLE
1002
{
1070
    41
1040
25.0
1070
   147
1040
6.25
1070
    77
1070
     0
1070
    73
1070
     1
1070
    74
1070
     1
1070
   279
1070
     1
1070
   342
1005
DA
1002
}
  0
TEXT
  5
537
330
1F
100
AcDbEntity
  8
0
100
AcDbText
 10
1557.794786527914
 20
1252.475031360633
 30
0.0
 40
25.0
  1
80R
 72
     2
 11
1620.294786527914
 21
1249.1416980273
 31
0.0
100
AcDbText
 73
     1
  0
LEADER
  5
53A
330
1F
100
AcDbEntity
  8
0
100
AcDbLeader
  3
ISO-25
 40
25.0
 41
16.66666666666666
 76
     2
 10
1727.503846533841
 20
1221.048703221138
 30
0.0
 10
1674.105232340412
 20
1297.189639952476
 30
0.0
213
0.0
223
12.5
233
0.0
1001
ACAD
1000
DSTYLE
1002
{
1070
    41
1040
25.0
1070
   147
1040
6.25
1070
    77
1070
     0
1070
    73
1070
     1
1070
    74
1070
     1
1070
   279
1070
     1
1070
   342
1005
DA
1002
}
  0
TEXT
  5
53C
330
1F
100
AcDbEntity
  8
0
100
AcDbText
 10
1600.569140852609
 20
1295.946979496779
 30
0.0
 40
25.0
  1
65R
 72
     2
 11
1667.235807519276
 21
1292.613646163446
 31
0.0
100
AcDbText
 73
     1
  0
LEADER
  5
53D
330
1F
100
AcDbEntity
  8
0
100
AcDbLeader
  3
ISO-25
 40
25.0
 41
16.66666666666666
 76
     2
 10
1421.849830187122
 20
1196.553318899198
 30
0.0
 10
1447.625860284041
 20
1243.387885852636
 30
0.0
213
0.0
223
-12.5
233
0.0
1001
ACAD
1000
DSTYLE
1002
{
1070
    41
1040
25.0
1070
   147
1040
6.25
1070
    77
1070
     0
1070
    73
1070
     1
1070
    74
1070
     1
1070
   279
1070
     1
1070
   342
1005
DA
1002
}
  0
TEXT
  5
53F
330
1F
100
AcDbEntity
  8
0
100
AcDbText
 10
1422.404962067298
 20
1258.013236762618
 30
0.0
 40
25.0
  1
10000R
 11
1422.404962067298
 21
1254.679903429285
 31
0.0
100
AcDbText
 73
     1
  0
LEADER
  5
540
330
1F
100
AcDbEntity
  8
0
100
AcDbLeader
  3
ISO-25
 76
     2
 10
1733.626880660327
 20
1355.069230630536
 30
0.0
 10
1661.503174147262
 20
1355.448738047424
 30
0.0
1001
ACAD
1000
DSTYLE
1002
{
1070
    41
1040
25.0
1070
   147
1040
6.25
1070
    77
1070
     0
1070
    73
1070
     1
1070
    74
1070
     1
1070
   279
1070
     1
1070
   342
1005
DA
1002
}
  0
TEXT
  5
54B
330
1F
100
AcDbEntity
  8
0
100
AcDbText
 10
1531.818010192887
 20
1343.884010478094
 30
0.0
 40
25.0
  1
10000R
 72
     2
 11
1648.484676859553
 21
1356.384010478093
 31
0.0
100
AcDbText
 73
     2
  0
LEADER
  5
54C
330
1F
100
AcDbEntity
  8
0
100
AcDbLeader
  3
ISO-25
 40
25.0
 41
16.66666666666666
 76
     2
 10
1735.906834122248
 20
1616.792650714482
 30
0.0
 10
1716.688321433909
 20
1511.514854585138
 30
0.0
213
0.0
223
12.5
233
0.0
1001
ACAD
1000
DSTYLE
1002
{
1070
    41
1040
25.0
1070
   147
1040
6.25
1070
    77
1070
     0
1070
    73
1070
     1
1070
    74
1070
     1
1070
   279
1070
     1
1070
   342
1005
DA
1002
}
  0
TEXT
  5
54E
330
1F
100
AcDbEntity
  8
0
100
AcDbText
 10
1673.807507937887
 20
1478.819322542989
 30
0.0
 40
25.0
  1
80R
 72
     2
 11
1736.307507937887
 21
1475.485989209656
 31
0.0
100
AcDbText
 73
     1
  0
LEADER
  5
558
330
1F
100
AcDbEntity
  8
0
100
AcDbLeader
  3
ISO-25
 40
25.0
 41
16.66666666666666
 76
     2
 10
1418.935457056375
 20
1622.794335427214
 30
0.0
 10
1467.741569209278
 20
1606.878319042653
 30
0.0
213
0.0
223
-12.5
233
0.0
1001
ACAD
1000
DSTYLE
1002
{
1070
    41
1040
25.0
1070
   147
1040
6.25
1070
    77
1070
     0
1070
    73
1070
     1
1070
    74
1070
     1
1070
   279
1070
     1
1070
   342
1005
DA
1002
}
  0
TEXT
  5
55A
330
1F
100
AcDbEntity
  8
0
100
AcDbText
 10
1475.755888443323
 20
1590.438781532761
 30
0.0
 40
25.0
  1
45R
 11
1475.755888443323
 21
1587.105448199428
 31
0.0
100
AcDbText
 73
     1
  0
MTEXT
  5
55C
330
1F
100
AcDbEntity
  8
0
100
AcDbMText
 10
1010.02660136874
 20
1423.470120422065
 30
0.0
 40
25.0
 41
0.0
 71
     1
 72
     1
  1

 73
     1
 44
1.0
1001
ACAD
1000
MTEXTBEGIN
1070
    73
1070
     1
1070
    44
1040
1.0
1070
    74
1070
     0
1000
MTEXTEND
  0
LINE
  5
56A
330
1F
100
AcDbEntity
  8
補助
100
AcDbLine
 10
2784.0
 20
134.0
 30
0.0
 11
2784.0
 21
199.0
 31
0.0
  0
TEXT
  5
56C
330
1F
100
AcDbEntity
  8
0
100
AcDbText
 10
2362.0
 20
151.5
 30
0.0
 40
30.0
  1
本図はＬタイプ
 72
     4
 11
2484.0
 21
166.5
 31
0.0
100
AcDbText
  0
DIMENSION
  5
586
330
1F
100
AcDbEntity
  8
0
100
AcDbDimension
  2
*D8
 10
1341.786533664072
 20
1648.86010153411
 30
0.0
 11
1314.048151241264
 21
1624.338644820605
 31
0.0
 70
   160
  1
16
 71
     5
 42
15.00000000000023
  3
ISO-25
100
AcDbAlignedDimension
 13
1417.814030259615
 23
1633.86010153411
 33
0.0
 14
1434.559094235713
 24
1648.86010153411
 34
0.0
 50
90.0
100
AcDbRotatedDimension
1001
ACAD
1000
DSTYLE
1002
{
1070
   279
1070
     2
1002
}
  0
LINE
  5
59F
330
1F
100
AcDbEntity
  8
Cen
100
AcDbLine
 10
1350.550943851814
 20
1633.86010153411
 30
0.0
 11
1385.071665366046
 21
1633.86010153411
 31
0.0
  0
LINE
  5
5A0
330
1F
100
AcDbEntity
  8
Cen
100
AcDbLine
 10
1613.771431853768
 20
1633.86010153411
 30
0.0
 11
1646.673991812161
 21
1633.86010153411
 31
0.0
  0
MTEXT
  5
5A9
330
1F
100
AcDbEntity
  8
Cen
100
AcDbMText
 10
1527.939315450184
 20
552.4831097022406
 30
0.0
 40
25.0
 41
0.0
 71
     9
 72
     1
  1

 73
     1
 44
1.0
1001
ACAD
1000
MTEXTBEGIN
1070
    73
1070
     1
1070
    44
1040
1.0
1070
    74
1070
     0
1000
MTEXTEND
  0
LEADER
  5
5AA
330
1F
100
AcDbEntity
  8
Cen
100
AcDbLeader
  3
ISO-25
 40
25.0
 41
16.66666666666666
 76
     2
 10
1727.061480734118
 20
641.7918785545967
 30
0.0
 10
1698.18506843209
 20
691.6363766020572
 30
0.0
213
0.0
223
12.5
233
0.0
1001
ACAD
1000
DSTYLE
1002
{
1070
    41
1040
25.0
1070
   147
1040
6.25
1070
    77
1070
     0
1070
   279
1070
     1
1002
}
  0
TEXT
  5
5AD
330
1F
100
AcDbEntity
  8
0
100
AcDbText
 10
1641.744803499715
 20
699.5065634747166
 30
0.0
 40
25.0
  1
30R
100
AcDbText
  0
LINE
  5
5D0
330
1F
100
AcDbEntity
  8
補助
100
AcDbLine
 10
2784.0
 20
69.0
 30
0.0
 11
2784.0
 21
134.0
 31
0.0
  0
TEXT
  5
5D2
330
1F
100
AcDbEntity
  8
0
100
AcDbText
 10
2430.916666666667
 20
84.0
 30
0.0
 40
35.0
  1
1：10
 72
     4
 11
2484.0
 21
101.5
 31
0.0
100
AcDbText
  0
TEXT
  5
5F4
330
1F
100
AcDbEntity
  8
補助
100
AcDbText
 10
2300.255774665348
 20
16.49999999999999
 30
0.0
 40
40.0
  1
中外交易株式会社
 72
     4
 11
2488.255774665347
 21
36.5
 31
0.0
100
AcDbText
  0
LINE
  5
5F5
330
1F
100
AcDbEntity
  8
補助
100
AcDbLine
 10
2064.0
 20
69.0
 30
0.0
 11
2784.0
 21
69.0
 31
0.0
  0
HATCH
  5
5F6
330
1F
100
AcDbEntity
  8
補助
100
AcDbHatch
 10
0.0
 20
0.0
 30
0.0
210
0.0
220
0.0
230
1.0
  2
SOLID
 70
     1
 71
     1
 91
        3
 92
        1
 93
        4
 72
     2
 10
2257.166198313996
 20
36.5
 40
20.0
 50
11.6477236670766
 51
342.6561058784691
 73
     1
 72
     1
 10
2276.256852341323
 20
30.53787547858514
 11
2252.166198313995
 21
30.53787547858519
 72
     1
 10
2252.166198313995
 20
30.53787547858519
 11
2252.166198313995
 21
40.53787547858519
 72
     1
 10
2252.166198313995
 20
40.53787547858519
 11
2276.75434681301
 21
40.53787547858519
 97
        4
330
5F7
330
5F9
330
5FA
330
5FB
 92
        1
 93
        4
 72
     2
 10
2188.255774665348
 20
36.5
 40
20.0
 50
11.6477236670766
 51
342.6561058784691
 73
     1
 72
     1
 10
2207.346428692676
 20
30.53787547858514
 11
2183.255774665347
 21
30.53787547858519
 72
     1
 10
2183.255774665347
 20
30.53787547858519
 11
2183.255774665347
 21
40.53787547858519
 72
     1
 10
2183.255774665347
 20
40.53787547858519
 11
2207.843923164362
 21
40.53787547858519
 97
        4
330
5F8
330
601
330
602
330
603
 92
        1
 93
        5
 72
     1
 10
2245.64189404294
 20
56.5
 11
2210.641894042939
 21
56.5
 72
     1
 10
2210.641894042939
 20
56.5
 11
2210.641894042939
 21
16.5
 72
     1
 10
2210.641894042939
 20
16.5
 11
2245.64189404294
 21
16.5
 72
     1
 10
2245.64189404294
 20
16.5
 11
2210.641894042939
 21
36.5
 72
     1
 10
2210.641894042939
 20
36.5
 11
2245.64189404294
 21
56.5
 97
        5
330
5FC
330
600
330
5FF
330
5FE
330
5FD
 75
     0
 76
     1
 98
        1
 10
-60.0
 20
0.0
  0
ARC
  5
5F7
102
{ACAD_REACTORS
330
5F6
102
}
330
1F
100
AcDbEntity
  8
補助
370
     5
100
AcDbCircle
 10
2257.166198313996
 20
36.5
 30
0.0
 40
20.0
100
AcDbArc
 50
11.6477236670766
 51
342.6561058784691
  0
ARC
  5
5F8
102
{ACAD_REACTORS
330
5F6
102
}
330
1F
100
AcDbEntity
  8
補助
370
     5
100
AcDbCircle
 10
2188.255774665348
 20
36.5
 30
0.0
 40
20.0
100
AcDbArc
 50
11.6477236670766
 51
342.6561058784691
  0
LINE
  5
5F9
102
{ACAD_REACTORS
330
5F6
102
}
330
1F
100
AcDbEntity
  8
補助
370
     5
100
AcDbLine
 10
2252.166198313995
 20
30.53787547858519
 30
0.0
 11
2276.256852341323
 21
30.53787547858514
 31
0.0
  0
LINE
  5
5FA
102
{ACAD_REACTORS
330
5F6
102
}
330
1F
100
AcDbEntity
  8
補助
370
     5
100
AcDbLine
 10
2252.166198313995
 20
40.53787547858519
 30
0.0
 11
2252.166198313995
 21
30.53787547858519
 31
0.0
  0
LINE
  5
5FB
102
{ACAD_REACTORS
330
5F6
102
}
330
1F
100
AcDbEntity
  8
補助
370
     5
100
AcDbLine
 10
2276.75434681301
 20
40.53787547858519
 30
0.0
 11
2252.166198313995
 21
40.53787547858519
 31
0.0
  0
LINE
  5
5FC
102
{ACAD_REACTORS
330
5F6
102
}
330
1F
100
AcDbEntity
  8
補助
370
     5
100
AcDbLine
 10
2245.64189404294
 20
56.5
 30
0.0
 11
2210.641894042939
 21
56.5
 31
0.0
  0
LINE
  5
5FD
102
{ACAD_REACTORS
330
5F6
102
}
330
1F
100
AcDbEntity
  8
補助
370
     5
100
AcDbLine
 10
2210.641894042939
 20
36.5
 30
0.0
 11
2245.64189404294
 21
56.5
 31
0.0
  0
LINE
  5
5FE
102
{ACAD_REACTORS
330
5F6
102
}
330
1F
100
AcDbEntity
  8
補助
370
     5
100
AcDbLine
 10
2245.64189404294
 20
16.5
 30
0.0
 11
2210.641894042939
 21
36.5
 31
0.0
  0
LINE
  5
5FF
102
{ACAD_REACTORS
330
5F6
102
}
330
1F
100
AcDbEntity
  8
補助
370
     5
100
AcDbLine
 10
2210.641894042939
 20
16.5
 30
0.0
 11
2245.64189404294
 21
16.5
 31
0.0
  0
LINE
  5
600
102
{ACAD_REACTORS
330
5F6
102
}
330
1F
100
AcDbEntity
  8
補助
370
     5
100
AcDbLine
 10
2210.641894042939
 20
56.5
 30
0.0
 11
2210.641894042939
 21
16.5
 31
0.0
  0
LINE
  5
601
102
{ACAD_REACTORS
330
5F6
102
}
330
1F
100
AcDbEntity
  8
補助
370
     5
100
AcDbLine
 10
2183.255774665347
 20
30.53787547858519
 30
0.0
 11
2207.346428692676
 21
30.53787547858514
 31
0.0
  0
LINE
  5
602
102
{ACAD_REACTORS
330
5F6
102
}
330
1F
100
AcDbEntity
  8
補助
370
     5
100
AcDbLine
 10
2183.255774665347
 20
40.53787547858519
 30
0.0
 11
2183.255774665347
 21
30.53787547858519
 31
0.0
  0
LINE
  5
603
102
{ACAD_REACTORS
330
5F6
102
}
330
1F
100
AcDbEntity
  8
補助
370
     5
100
AcDbLine
 10
2207.843923164362
 20
40.53787547858519
 30
0.0
 11
2183.255774665347
 21
40.53787547858519
 31
0.0
  0
LINE
  5
A29
330
1F
100
AcDbEntity
  8
補助
100
AcDbLine
 10
2064.0
 20
4.0
 30
0.0
 11
2064.0
 21
264.0
 31
0.0
  0
TEXT
  5
A2D
330
1F
100
AcDbEntity
  8
補助
100
AcDbText
 10
2086.666666666667
 20
84.0
 30
0.0
 40
35.0
  1
尺度
 72
     4
 11
2124.0
 21
101.5
 31
0.0
100
AcDbText
  0
LINE
  5
1A44
330
1F
100
AcDbEntity
  8
0
100
AcDbLine
 10
2339.91476544398
 20
1580.23510153411
 30
0.0
 11
2339.91476544398
 21
1399.23510153411
 31
0.0
  0
LINE
  5
1A46
330
1F
100
AcDbEntity
  8
実形
100
AcDbLine
 10
2331.91476544398
 20
1580.23510153411
 30
0.0
 11
2339.91476544398
 21
1580.23510153411
 31
0.0
  0
LINE
  5
1A47
330
1F
100
AcDbEntity
  8
実形
100
AcDbLine
 10
2331.91476544398
 20
1399.23510153411
 30
0.0
 11
2339.91476544398
 21
1399.23510153411
 31
0.0
  0
LINE
  5
1BFA
330
1F
100
AcDbEntity
  8
補助
100
AcDbLine
 10
2784.000000000001
 20
1959.0
 30
0.0
 11
2019.387286519283
 21
1959.0
 31
0.0
  0
LINE
  5
1BFB
330
1F
100
AcDbEntity
  8
補助
100
AcDbLine
 10
2784.000000000001
 20
1894.0
 30
0.0
 11
2019.387286519283
 21
1894.0
 31
0.0
  0
LINE
  5
1BFC
330
1F
100
AcDbEntity
  8
補助
100
AcDbLine
 10
2202.547653420927
 20
1894.0
 30
0.0
 11
2202.547653420927
 21
2024.0
 31
0.0
  0
LINE
  5
1BFD
330
1F
100
AcDbEntity
  8
補助
100
AcDbLine
 10
2019.387286519283
 20
1894.0
 30
0.0
 11
2019.387286519283
 21
2024.0
 31
0.0
  0
TEXT
  5
1BFE
330
1F
100
AcDbEntity
  8
補助
100
AcDbText
 10
2050.295698850121
 20
1976.328571428572
 30
0.0
 40
30.0
  1
部品名
  7
明朝
 72
     4
 11
2116.124270278692
 21
1991.5
 31
0.0
100
AcDbText
  0
TEXT
  5
1BFF
330
1F
100
AcDbEntity
  8
補助
100
AcDbText
 10
2627.614285714287
 20
1976.071428571429
 30
0.0
 40
30.0
  1
厚さ
  7
明朝
 72
     4
 11
2671.5
 21
1991.5
 31
0.0
100
AcDbText
  0
LINE
  5
1C00
330
1F
100
AcDbEntity
  8
補助
100
AcDbLine
 10
2559.0
 20
1894.0
 30
0.0
 11
2559.000000000001
 21
2024.0
 31
0.0
  0
TEXT
  5
1C01
330
1F
100
AcDbEntity
  8
補助
100
AcDbText
 10
2338.490869919937
 20
1975.947979478154
 30
0.0
 40
30.0
  1
材質
  7
明朝
 72
     4
 11
2382.376584205651
 21
1991.119408049583
 31
0.0
100
AcDbText
  0
LINE
  5
1C05
330
1F
100
AcDbEntity
  8
補助
100
AcDbLine
 10
111.0
 20
2024.0
 30
0.0
 11
111.0
 21
4.0
 31
0.0
  0
LINE
  5
1DDB
330
1F
100
AcDbEntity
  8
実形
100
AcDbLine
 10
1239.559094235713
 20
1258.86010153411
 30
0.0
 11
1239.559094235713
 21
1568.86010153411
 31
0.0
  0
LINE
  5
1DFF
330
1F
100
AcDbEntity
  8
実形
100
AcDbLine
 10
1429.559094235713
 20
1648.86010153411
 30
0.0
 11
1499.559094235713
 21
1648.86010153411
 31
0.0
  0
LEADER
  5
1E15
330
1F
100
AcDbEntity
  8
0
100
AcDbLeader
  3
ISO-25
 40
25.0
 41
16.66666666666666
 76
     2
 10
1375.891954631834
 20
1576.21689082849
 30
0.0
 10
1364.945537784146
 20
1522.348831546739
 30
0.0
213
0.0
223
-12.5
233
0.0
1001
ACAD
1000
DSTYLE
1002
{
1070
    41
1040
25.0
1070
   147
1040
6.25
1070
    77
1070
     0
1070
    73
1070
     1
1070
    74
1070
     1
1070
   279
1070
     1
1070
   342
1005
DA
1002
}
  0
TEXT
  5
1E16
330
1F
100
AcDbEntity
  8
0
100
AcDbText
 10
1319.732093376953
 20
1488.879476417258
 30
0.0
 40
25.0
  1
60R
 11
1319.732093376953
 21
1485.546143083925
 31
0.0
100
AcDbText
 73
     1
  0
LEADER
  5
1E1F
330
1F
100
AcDbEntity
  8
0
100
AcDbLeader
  3
ISO-25
 40
25.0
 41
16.66666666666666
 76
     2
 10
1278.826342069447
 20
1547.625469269971
 30
0.0
 10
1290.50560520631
 20
1469.948995957995
 30
0.0
213
0.0
223
-12.5
233
0.0
1001
ACAD
1000
DSTYLE
1002
{
1070
    41
1040
25.0
1070
   147
1040
6.25
1070
    77
1070
     0
1070
    73
1070
     1
1070
    74
1070
     1
1070
   279
1070
     1
1070
   342
1005
DA
1002
}
  0
TEXT
  5
1E20
330
1F
100
AcDbEntity
  8
0
100
AcDbText
 10
1265.788923413702
 20
1437.300979519974
 30
0.0
 40
25.0
  1
65R
 11
1265.788923413702
 21
1433.967646186641
 31
0.0
100
AcDbText
 73
     1
  0
LINE
  5
1E23
330
1F
100
AcDbEntity
  8
実形
100
AcDbLine
 10
1499.559094235713
 20
1648.86010153411
 30
0.0
 11
1327.039123492307
 21
1648.86010153411
 31
0.0
  0
LINE
  5
1E24
330
1F
100
AcDbEntity
  8
実形
100
AcDbLine
 10
1499.559094235713
 20
1178.86010153411
 30
0.0
 11
1327.039123492307
 21
1178.86010153411
 31
0.0
  0
LINE
  5
1E4C
330
1F
100
AcDbEntity
  8
実形
100
AcDbLine
 10
1499.559094235713
 20
1193.86010153411
 30
0.0
 11
1327.039123492307
 21
1193.86010153411
 31
0.0
  0
LINE
  5
1E4F
330
1F
100
AcDbEntity
  8
実形
100
AcDbLine
 10
1254.559094235713
 20
1258.86010153411
 30
0.0
 11
1254.559094235713
 21
1503.86010153411
 31
0.0
  0
DIMENSION
  5
1EC5
330
1F
100
AcDbEntity
  8
実形
100
AcDbDimension
  2
*D11
 10
2046.727536367236
 20
1143.86010153411
 30
0.0
 11
2027.977536367236
 21
1413.86010153411
 31
0.0
 70
    32
 71
     5
 42
539.9999999999997
  3
ISO-25
100
AcDbAlignedDimension
 13
1781.921220954568
 23
1683.86010153411
 33
0.0
 14
1781.921220954568
 24
1143.86010153411
 34
0.0
 50
90.0
100
AcDbRotatedDimension
1001
ACAD
1000
DSTYLE
1002
{
1070
   279
1070
     1
1002
}
  0
LINE
  5
1ED4
330
1F
100
AcDbEntity
  8
実形
100
AcDbLine
 10
1499.559094235713
 20
1632.86010153411
 30
0.0
 11
1434.559094235713
 21
1632.86010153411
 31
0.0
  0
DIMENSION
  5
1EE2
330
1F
100
AcDbEntity
  8
実形
100
AcDbDimension
  2
*D12
 10
1923.161157486866
 20
1568.86010153411
 30
0.0
 11
1904.411157486865
 21
1608.860101534111
 31
0.0
 70
    32
 71
     5
 42
79.99999999999932
  3
ISO-25
100
AcDbAlignedDimension
 13
1781.921220954568
 23
1648.86010153411
 33
0.0
 14
1781.921220954568
 24
1568.86010153411
 34
0.0
 50
90.0
100
AcDbRotatedDimension
1001
ACAD
1000
DSTYLE
1002
{
1070
   279
1070
     1
1002
}
  0
DIMENSION
  5
1F2C
330
1F
100
AcDbEntity
  8
実形
100
AcDbDimension
  2
*D13
 10
1923.161157486866
 20
1193.86010153411
 30
0.0
 11
1904.411157486865
 21
1381.360101534111
 31
0.0
 70
    32
 71
     5
 42
375.0000000000002
  3
ISO-25
100
AcDbAlignedDimension
 13
1781.921220954568
 23
1568.86010153411
 33
0.0
 14
1781.921220954568
 24
1193.86010153411
 34
0.0
 50
90.0
100
AcDbRotatedDimension
1001
ACAD
1000
DSTYLE
1002
{
1070
   279
1070
     1
1002
}
  0
DIMENSION
  5
1F4A
330
1F
100
AcDbEntity
  8
実形
100
AcDbDimension
  2
*D14
 10
1980.103534687268
 20
1178.86010153411
 30
0.0
 11
1961.353534687267
 21
1413.86010153411
 31
0.0
 70
    32
 71
     5
 42
469.9999999999997
  3
ISO-25
100
AcDbAlignedDimension
 13
1781.921220954568
 23
1648.86010153411
 33
0.0
 14
1781.921220954568
 24
1178.86010153411
 34
0.0
 50
90.0
100
AcDbRotatedDimension
1001
ACAD
1000
DSTYLE
1002
{
1070
   279
1070
     1
1002
}
  0
DIMENSION
  5
1F57
330
1F
100
AcDbEntity
  8
実形
100
AcDbDimension
  2
*D15
 10
1980.103534687268
 20
1143.86010153411
 30
0.0
 11
1976.031897386961
 21
1206.813866723811
 31
0.0
 70
   160
  1
35
 71
     5
 42
539.9999999999997
  3
ISO-25
100
AcDbAlignedDimension
 13
1781.921220954568
 23
1683.86010153411
 33
0.0
 14
1781.921220954568
 24
1143.86010153411
 34
0.0
 50
90.0
100
AcDbRotatedDimension
1001
ACAD
1000
DSTYLE
1002
{
1070
   279
1070
     1
1002
}
  0
DIMENSION
  5
1F89
330
1F
100
AcDbEntity
  8
実形
100
AcDbDimension
  2
*D16
 10
1980.103534687268
 20
1143.86010153411
 30
0.0
 11
1980.412633299411
 21
1622.466159842104
 31
0.0
 70
   160
  1
35
 71
     5
 42
539.9999999999997
  3
ISO-25
100
AcDbAlignedDimension
 13
1781.921220954568
 23
1683.86010153411
 33
0.0
 14
1781.921220954568
 24
1143.86010153411
 34
0.0
 50
90.0
100
AcDbRotatedDimension
1001
ACAD
1000
DSTYLE
1002
{
1070
   279
1070
     1
1002
}
  0
DIMENSION
  5
1FBA
330
1F
100
AcDbEntity
  8
実形
100
AcDbDimension
  2
*D17
 10
1923.161157486866
 20
1178.86010153411
 30
0.0
 11
1923.728941974123
 21
1217.15528965231
 31
0.0
 70
   160
  1
15
 71
     5
 42
469.9999999999997
  3
ISO-25
100
AcDbAlignedDimension
 13
1781.921220954568
 23
1648.86010153411
 33
0.0
 14
1781.921220954568
 24
1178.86010153411
 34
0.0
 50
90.0
100
AcDbRotatedDimension
1001
ACAD
1000
DSTYLE
1002
{
1070
   279
1070
     1
1002
}
  0
ARC
  5
2033
330
1F
100
AcDbEntity
  8
実形
100
AcDbCircle
 10
1434.559094235713
 20
1587.86010153411
 30
0.0
 40
45.0
100
AcDbArc
 50
90.0
 51
160.8933140200214
  0
LINE
  5
2035
330
1F
100
AcDbEntity
  8
実形
100
AcDbLine
 10
1319.559094235713
 20
1568.86010153411
 30
0.0
 11
1327.039123492307
 21
1568.860101534109
 31
0.0
  0
ARC
  5
2038
330
1F
100
AcDbEntity
  8
実形
100
AcDbCircle
 10
1338.094855632338
 20
1628.860101534109
 30
0.0
 40
60.0
100
AcDbArc
 50
270.0000000000003
 51
334.0340321821692
  0
ARC
  5
203D
330
1F
100
AcDbEntity
  8
実形
100
AcDbCircle
 10
1319.559094235713
 20
1503.86010153411
 30
0.0
 40
65.0
100
AcDbArc
 50
90.0
 51
180.0
  0
ARC
  5
203E
330
1F
100
AcDbEntity
  8
実形
100
AcDbCircle
 10
1319.559094235713
 20
1258.86010153411
 30
0.0
 40
65.0
100
AcDbArc
 50
180.0
 51
270.0
  0
DIMENSION
  5
204F
330
1F
100
AcDbEntity
  8
実形
100
AcDbDimension
  2
*D18
 10
1744.559094235713
 20
1036.807958926578
 30
0.0
 11
1282.212949148452
 21
1038.686532268721
 31
0.0
 70
   160
  1
15
 71
     5
 42
490.0000000000004
  3
ISO-25
100
AcDbAlignedDimension
 13
1254.559094235713
 23
1155.833394069355
 33
0.0
 14
1744.559094235713
 24
1155.833394069355
 34
0.0
100
AcDbRotatedDimension
1001
ACAD
1000
DSTYLE
1002
{
1070
   279
1070
     1
1002
}
  0
DIMENSION
  5
2095
330
1F
100
AcDbEntity
  8
実形
100
AcDbDimension
  2
*D20
 10
1759.559094235713
 20
1036.807958926578
 30
0.0
 11
1711.653110495003
 21
1036.807958926578
 31
0.0
 70
   160
  1
15
 71
     5
 42
520.0000000000004
  3
ISO-25
100
AcDbAlignedDimension
 13
1239.559094235713
 23
1155.833394069355
 33
0.0
 14
1759.559094235713
 24
1155.833394069355
 34
0.0
100
AcDbRotatedDimension
1001
ACAD
1000
DSTYLE
1002
{
1070
   279
1070
     1
1002
}
  0
DIMENSION
  5
20D9
330
1F
100
AcDbEntity
  8
実形
100
AcDbDimension
  2
*D21
 10
1759.559094235713
 20
1036.807958926578
 30
0.0
 11
1499.559094235713
 21
1055.557958926578
 31
0.0
 70
    32
  1
490
 71
     5
 42
520.0000000000004
  3
ISO-25
100
AcDbAlignedDimension
 13
1239.559094235713
 23
1155.833394069355
 33
0.0
 14
1759.559094235713
 24
1155.833394069355
 34
0.0
100
AcDbRotatedDimension
1001
ACAD
1000
DSTYLE
1002
{
1070
   279
1070
     1
1002
}
  0
ARC
  5
21A0
330
1F
100
AcDbEntity
  8
実形
100
AcDbCircle
 10
1319.559094235713
 20
1568.86010153411
 30
0.0
 40
80.0
100
AcDbArc
 50
90.0
 51
180.0
  0
ARC
  5
21A3
330
1F
100
AcDbEntity
  8
実形
100
AcDbCircle
 10
1319.559094235713
 20
1258.86010153411
 30
0.0
 40
80.0
100
AcDbArc
 50
180.0
 51
270.0
  0
LINE
  5
21A5
330
1F
100
AcDbEntity
  8
0
100
AcDbLine
 10
1759.559094235714
 20
1503.860101534109
 30
0.0
 11
1759.559094235713
 21
1258.860101534109
 31
0.0
  0
ARC
  5
21A6
330
1F
100
AcDbEntity
  8
実形
100
AcDbCircle
 10
1564.559094235713
 20
1587.86010153411
 30
0.0
 40
45.0
100
AcDbArc
 50
19.10668597997854
 51
89.99999999999994
  0
LINE
  5
21A7
330
1F
100
AcDbEntity
  8
実形
100
AcDbLine
 10
1759.559094235713
 20
1258.860101534109
 30
0.0
 11
1759.559094235713
 21
1568.860101534109
 31
0.0
  0
ARC
  5
21A8
330
1F
100
AcDbEntity
  8
実形
100
AcDbCircle
 10
1679.559094235713
 20
1258.86010153411
 30
0.0
 40
80.0
100
AcDbArc
 50
269.9999999999999
 51
360.0
  0
LINE
  5
21AB
330
1F
100
AcDbEntity
  8
実形
100
AcDbLine
 10
1744.559094235713
 20
1258.86010153411
 30
0.0
 11
1744.559094235713
 21
1503.860101534109
 31
0.0
  0
ARC
  5
21AC
330
1F
100
AcDbEntity
  8
実形
100
AcDbCircle
 10
1679.559094235713
 20
1258.86010153411
 30
0.0
 40
65.0
100
AcDbArc
 50
269.9999999999999
 51
360.0
  0
LINE
  5
21AD
330
1F
100
AcDbEntity
  8
実形
100
AcDbLine
 10
1499.559094235713
 20
1648.86010153411
 30
0.0
 11
1672.079064979119
 21
1648.86010153411
 31
0.0
  0
ARC
  5
21AE
330
1F
100
AcDbEntity
  8
実形
100
AcDbCircle
 10
1679.559094235713
 20
1568.860101534109
 30
0.0
 40
80.0
100
AcDbArc
 50
360.0
 51
89.99999999999994
  0
LINE
  5
21AF
330
1F
100
AcDbEntity
  8
実形
100
AcDbLine
 10
1499.559094235713
 20
1632.86010153411
 30
0.0
 11
1564.559094235713
 21
1632.86010153411
 31
0.0
  0
LINE
  5
21B2
330
1F
100
AcDbEntity
  8
実形
100
AcDbLine
 10
1499.559094235713
 20
1178.86010153411
 30
0.0
 11
1672.079064979119
 21
1178.86010153411
 31
0.0
  0
LINE
  5
21B4
330
1F
100
AcDbEntity
  8
実形
100
AcDbLine
 10
1499.559094235713
 20
1193.86010153411
 30
0.0
 11
1672.079064979119
 21
1193.86010153411
 31
0.0
  0
LINE
  5
21B5
330
1F
100
AcDbEntity
  8
実形
100
AcDbLine
 10
1679.559094235713
 20
1568.860101534109
 30
0.0
 11
1672.079064979119
 21
1568.860101534109
 31
0.0
  0
ARC
  5
21B6
330
1F
100
AcDbEntity
  8
実形
100
AcDbCircle
 10
1679.559094235713
 20
1503.860101534109
 30
0.0
 40
65.0
100
AcDbArc
 50
360.0
 51
89.99999999999994
  0
ARC
  5
21B7
330
1F
100
AcDbEntity
  8
実形
100
AcDbCircle
 10
1661.023332839089
 20
1628.860101534109
 30
0.0
 40
60.0
100
AcDbArc
 50
205.9659678178308
 51
269.9999999999997
  0
LINE
  5
21C7
330
1F
100
AcDbEntity
  8
Cen
 48
0.8
100
AcDbLine
 10
1633.666655914791
 20
1488.86010153411
 30
0.0
 11
1365.451532556634
 21
1488.86010153411
 31
0.0
  0
LINE
  5
2254
330
1F
100
AcDbEntity
  8
実形
100
AcDbLine
 10
1420.559094235713
 20
615.2661477511847
 30
0.0
 11
1499.559094235713
 21
615.2661477511847
 31
0.0
  0
LINE
  5
2256
330
1F
100
AcDbEntity
  8
実形
100
AcDbLine
 10
1420.559094235713
 20
605.2661477511847
 30
0.0
 11
1499.559094235713
 21
605.2661477511847
 31
0.0
  0
LINE
  5
22EB
330
1F
100
AcDbEntity
  8
0
100
AcDbLine
 10
936.559094235713
 20
805.2661477511847
 30
0.0
 11
922.5590942357129
 21
805.2661477511849
 31
0.0
  0
LINE
  5
22EC
330
1F
100
AcDbEntity
  8
0
100
AcDbLine
 10
1254.559094235713
 20
787.2661477511849
 30
0.0
 11
1254.559094235713
 21
657.4945841567815
 31
0.0
  0
LINE
  5
22F1
330
1F
100
AcDbEntity
  8
実形
100
AcDbLine
 10
1499.559094235713
 20
615.2661477511847
 30
0.0
 11
1409.059094235713
 21
615.2661477511848
 31
0.0
  0
LINE
  5
22F2
330
1F
100
AcDbEntity
  8
実形
100
AcDbLine
 10
1499.559094235713
 20
605.2661477511847
 30
0.0
 11
1409.059094235713
 21
605.2661477511847
 31
0.0
  0
LINE
  5
22F3
330
1F
100
AcDbEntity
  8
実形
100
AcDbLine
 10
1251.559094235713
 20
790.2661477511849
 30
0.0
 11
1242.559094235713
 21
790.2661477511849
 31
0.0
  0
LINE
  5
22F4
330
1F
100
AcDbEntity
  8
実形
100
AcDbLine
 10
939.5590942357136
 20
790.2661477511849
 30
0.0
 11
1327.039123492307
 21
790.2661477511847
 31
0.0
  0
ARC
  5
239A
330
1F
100
AcDbEntity
  8
実形
100
AcDbCircle
 10
1251.559094235713
 20
787.2661477511849
 30
0.0
 40
3.0
100
AcDbArc
 50
0.0
 51
90.0
  0
LINE
  5
239E
330
1F
100
AcDbEntity
  8
実形
100
AcDbLine
 10
922.5590942357129
 20
805.2661477511849
 30
0.0
 11
939.5590942357133
 21
805.2661477511851
 31
0.0
  0
LINE
  5
23FE
330
1F
100
AcDbEntity
  8
実形
100
AcDbLine
 10
2159.91476544398
 20
1568.860101534109
 30
0.0
 11
2301.914765443981
 21
1568.860101534109
 31
0.0
  0
LINE
  5
2405
330
1F
100
AcDbEntity
  8
実形
100
AcDbLine
 10
1409.059094235713
 20
605.2661477511847
 30
0.0
 11
1409.059094235713
 21
615.2661477511848
 31
0.0
  0
LINE
  5
243C
330
1F
100
AcDbEntity
  8
実形
100
AcDbLine
 10
2141.91476544398
 20
1665.86010153411
 30
0.0
 11
2141.91476544398
 21
1651.86010153411
 31
0.0
  0
LINE
  5
243E
330
1F
100
AcDbEntity
  8
実形
100
AcDbLine
 10
2156.91476544398
 20
1645.86010153411
 30
0.0
 11
2156.914765443981
 21
1636.86010153411
 31
0.0
  0
LINE
  5
243F
330
1F
100
AcDbEntity
  8
実形
100
AcDbLine
 10
2159.914765443981
 20
1633.86010153411
 30
0.0
 11
2294.154823450446
 21
1633.86010153411
 31
0.0
  0
LINE
  5
2441
330
1F
100
AcDbEntity
  8
実形
100
AcDbLine
 10
2159.914765443981
 20
1633.860101534109
 30
0.0
 11
2294.154823450446
 21
1633.86010153411
 31
0.0
  0
LINE
  5
2443
330
1F
100
AcDbEntity
  8
実形
100
AcDbLine
 10
2331.91476544398
 20
1580.23510153411
 30
0.0
 11
2323.04584135719
 21
1611.941505144387
 31
0.0
  0
LINE
  5
2444
330
1F
100
AcDbEntity
  8
実形
100
AcDbLine
 10
2331.91476544398
 20
1399.23510153411
 30
0.0
 11
2318.946271742361
 21
1221.674808602771
 31
0.0
  0
LINE
  5
2445
330
1F
100
AcDbEntity
  8
実形
100
AcDbLine
 10
2141.91476544398
 20
1161.86010153411
 30
0.0
 11
2141.91476544398
 21
1178.86010153411
 31
0.0
  0
LINE
  5
2447
330
1F
100
AcDbEntity
  8
実形
100
AcDbLine
 10
2156.91476544398
 20
1181.86010153411
 30
0.0
 11
2156.91476544398
 21
1190.86010153411
 31
0.0
  0
LINE
  5
2448
330
1F
100
AcDbEntity
  8
実形
100
AcDbLine
 10
2159.91476544398
 20
1193.86010153411
 30
0.0
 11
2289.025969357455
 21
1193.86010153411
 31
0.0
  0
LINE
  5
2449
330
1F
100
AcDbEntity
  8
実形
100
AcDbLine
 10
2159.91476544398
 20
1193.86010153411
 30
0.0
 11
2289.025969357455
 21
1193.86010153411
 31
0.0
  0
ARC
  5
244A
330
1F
100
AcDbEntity
  8
実形
100
AcDbCircle
 10
2294.154823450446
 20
1603.86010153411
 30
0.0
 40
30.0
100
AcDbArc
 50
15.62738373912136
 51
90.0
  0
ARC
  5
244C
330
1F
100
AcDbEntity
  8
実形
100
AcDbCircle
 10
2289.025969357455
 20
1223.86010153411
 30
0.0
 40
30.0
100
AcDbArc
 50
270.0
 51
355.8226981567738
  0
ARC
  5
2457
330
1F
100
AcDbEntity
  8
実形
100
AcDbCircle
 10
2301.914765443981
 20
1538.860101534109
 30
0.0
 40
30.0
100
AcDbArc
 50
0.0
 51
90.0
  0
LINE
  5
2458
330
1F
100
AcDbEntity
  8
実形
100
AcDbLine
 10
2331.914765443981
 20
1538.860101534109
 30
0.0
 11
2331.914765443982
 21
1580.23510153411
 31
0.0
  0
ARC
  5
245C
330
1F
100
AcDbEntity
  8
実形
100
AcDbCircle
 10
2159.91476544398
 20
1190.86010153411
 30
0.0
 40
3.0
100
AcDbArc
 50
90.0
 51
179.9999999999999
  0
ARC
  5
245F
330
1F
100
AcDbEntity
  8
実形
100
AcDbCircle
 10
2159.914765443981
 20
1636.86010153411
 30
0.0
 40
3.0
100
AcDbArc
 50
180.0
 51
269.9999999999999
  0
LINE
  5
2461
330
1F
100
AcDbEntity
  8
実形
100
AcDbLine
 10
2141.91476544398
 20
1665.86010153411
 30
0.0
 11
2141.91476544398
 21
1161.86010153411
 31
0.0
  0
LINE
  5
2462
330
1F
100
AcDbEntity
  8
実形
100
AcDbLine
 10
2156.91476544398
 20
1571.86010153411
 30
0.0
 11
2156.91476544398
 21
1641.36010153411
 31
0.0
  0
ARC
  5
2463
330
1F
100
AcDbEntity
  8
実形
100
AcDbCircle
 10
2159.91476544398
 20
1571.86010153411
 30
0.0
 40
3.0
100
AcDbArc
 50
179.9999999999999
 51
270.0
  0
LINE
  5
2464
330
1F
100
AcDbEntity
  8
実形
100
AcDbLine
 10
2156.91476544398
 20
1606.61010153411
 30
0.0
 11
2156.91476544398
 21
1186.36010153411
 31
0.0
  0
LINE
  5
24FF
330
1F
100
AcDbEntity
  8
実形
100
AcDbLine
 10
1327.039123492307
 20
1178.86010153411
 30
0.0
 11
1319.559094235713
 21
1178.86010153411
 31
0.0
  0
LINE
  5
2500
330
1F
100
AcDbEntity
  8
実形
100
AcDbLine
 10
1327.039123492307
 20
1193.86010153411
 30
0.0
 11
1319.559094235713
 21
1193.86010153411
 31
0.0
  0
LINE
  5
2501
330
1F
100
AcDbEntity
  8
実形
100
AcDbLine
 10
1327.039123492307
 20
1568.860101534109
 30
0.0
 11
1337.878375425183
 21
1568.860101534109
 31
0.0
  0
LINE
  5
2502
330
1F
100
AcDbEntity
  8
実形
100
AcDbLine
 10
1327.039123492307
 20
1648.860101534111
 30
0.0
 11
1319.559094235713
 21
1648.86010153411
 31
0.0
  0
LINE
  5
2505
330
1F
100
AcDbEntity
  8
実形
100
AcDbLine
 10
1327.039123492307
 20
790.2661477511847
 30
0.0
 11
1499.559094235713
 21
790.2661477511847
 31
0.0
  0
LINE
  5
2506
330
1F
100
AcDbEntity
  8
実形
100
AcDbLine
 10
1327.039123492307
 20
805.2661477511847
 30
0.0
 11
1499.559094235713
 21
805.2661477511847
 31
0.0
  0
LINE
  5
25AC
330
1F
100
AcDbEntity
  8
実形
100
AcDbLine
 10
1409.059094235713
 20
615.2661477511848
 30
0.0
 11
1281.660103713931
 21
627.6349817824259
 31
0.0
  0
ARC
  5
25AD
330
1F
100
AcDbEntity
  8
実形
100
AcDbCircle
 10
1284.559094235713
 20
657.4945841567815
 30
0.0
 40
30.0
100
AcDbArc
 50
180.0
 51
264.4546826911379
  0
LINE
  5
25B2
330
1F
100
AcDbEntity
  8
実形
100
AcDbLine
 10
1578.559094235713
 20
615.2661477511847
 30
0.0
 11
1499.559094235713
 21
615.2661477511847
 31
0.0
  0
LINE
  5
25B3
330
1F
100
AcDbEntity
  8
実形
100
AcDbLine
 10
1578.559094235713
 20
605.2661477511847
 30
0.0
 11
1499.559094235713
 21
605.2661477511847
 31
0.0
  0
LINE
  5
25B4
330
1F
100
AcDbEntity
  8
0
100
AcDbLine
 10
1762.559094235713
 20
805.2661477511847
 30
0.0
 11
1776.559094235713
 21
805.2661477511849
 31
0.0
  0
LINE
  5
25B5
330
1F
100
AcDbEntity
  8
0
100
AcDbLine
 10
1744.559094235713
 20
787.2661477511849
 30
0.0
 11
1744.559094235712
 21
657.4945841567815
 31
0.0
  0
ARC
  5
25B6
330
1F
100
AcDbEntity
  8
実形
100
AcDbCircle
 10
1747.559094235713
 20
787.2661477511849
 30
0.0
 40
3.0
100
AcDbArc
 50
90.0
 51
180.0
  0
LINE
  5
25B7
330
1F
100
AcDbEntity
  8
実形
100
AcDbLine
 10
1499.559094235713
 20
615.2661477511847
 30
0.0
 11
1590.059094235713
 21
615.2661477511848
 31
0.0
  0
LINE
  5
25B8
330
1F
100
AcDbEntity
  8
実形
100
AcDbLine
 10
1499.559094235713
 20
605.2661477511847
 30
0.0
 11
1590.059094235713
 21
605.2661477511847
 31
0.0
  0
LINE
  5
25B9
330
1F
100
AcDbEntity
  8
実形
100
AcDbLine
 10
1747.559094235713
 20
790.2661477511849
 30
0.0
 11
1756.559094235713
 21
790.2661477511849
 31
0.0
  0
LINE
  5
25BA
330
1F
100
AcDbEntity
  8
実形
100
AcDbLine
 10
1747.559094235713
 20
790.2661477511849
 30
0.0
 11
1672.079064979119
 21
790.2661477511847
 31
0.0
  0
LINE
  5
25BB
330
1F
100
AcDbEntity
  8
実形
100
AcDbLine
 10
1672.079064979119
 20
790.2661477511847
 30
0.0
 11
1499.559094235713
 21
790.2661477511847
 31
0.0
  0
LINE
  5
25BC
330
1F
100
AcDbEntity
  8
実形
100
AcDbLine
 10
1776.559094235713
 20
805.2661477511849
 30
0.0
 11
1672.079064979119
 21
805.2661477511851
 31
0.0
  0
LINE
  5
25BD
330
1F
100
AcDbEntity
  8
実形
100
AcDbLine
 10
1672.079064979119
 20
805.2661477511847
 30
0.0
 11
1499.559094235713
 21
805.2661477511847
 31
0.0
  0
LINE
  5
25BE
330
1F
100
AcDbEntity
  8
実形
100
AcDbLine
 10
1590.059094235713
 20
605.2661477511847
 30
0.0
 11
1590.059094235713
 21
615.2661477511848
 31
0.0
  0
LINE
  5
25BF
330
1F
100
AcDbEntity
  8
実形
100
AcDbLine
 10
1590.059094235713
 20
615.2661477511848
 30
0.0
 11
1717.458084757495
 21
627.6349817824259
 31
0.0
  0
ARC
  5
25C0
330
1F
100
AcDbEntity
  8
実形
100
AcDbCircle
 10
1714.559094235713
 20
657.4945841567815
 30
0.0
 40
30.0
100
AcDbArc
 50
275.5453173088621
 51
360.0
  0
LINE
  5
25C3
330
1F
100
AcDbEntity
  8
実形
100
AcDbLine
 10
1672.079064979119
 20
1178.86010153411
 30
0.0
 11
1679.559094235713
 21
1178.86010153411
 31
0.0
  0
LINE
  5
25C4
330
1F
100
AcDbEntity
  8
実形
100
AcDbLine
 10
1672.079064979119
 20
1193.86010153411
 30
0.0
 11
1679.559094235713
 21
1193.86010153411
 31
0.0
  0
LINE
  5
25C5
330
1F
100
AcDbEntity
  8
実形
100
AcDbLine
 10
1672.079064979119
 20
1568.860101534109
 30
0.0
 11
1661.239813046243
 21
1568.860101534109
 31
0.0
  0
LINE
  5
25C6
330
1F
100
AcDbEntity
  8
実形
100
AcDbLine
 10
1672.079064979119
 20
1648.86010153411
 30
0.0
 11
1679.559094235713
 21
1648.86010153411
 31
0.0
  0
LEADER
  5
2777
330
1F
100
AcDbEntity
  8
Cen
100
AcDbLeader
  3
ISO-25
 40
25.0
 41
16.66666666666666
 76
     2
 10
2296.910265632831
 20
1208.511326191266
 30
0.0
 10
2268.033853330803
 20
1258.355824238727
 30
0.0
213
0.0
223
12.5
233
0.0
1001
ACAD
1000
DSTYLE
1002
{
1070
    41
1040
25.0
1070
   147
1040
6.25
1070
    77
1070
     0
1070
   279
1070
     1
1002
}
  0
TEXT
  5
2778
330
1F
100
AcDbEntity
  8
0
100
AcDbText
 10
2211.593588398429
 20
1266.226011111386
 30
0.0
 40
25.0
  1
30R
100
AcDbText
  0
LINE
  5
277D
330
1F
100
AcDbEntity
  8
実形
100
AcDbLine
 10
916.559094235713
 20
1143.86010153411
 30
0.0
 11
1782.559094235713
 21
1143.86010153411
 31
0.0
  0
LINE
  5
277E
330
1F
100
AcDbEntity
  8
実形
100
AcDbLine
 10
1794.559094235713
 20
1155.86010153411
 30
0.0
 11
1794.559094235713
 21
1671.86010153411
 31
0.0
  0
LINE
  5
277F
330
1F
100
AcDbEntity
  8
実形
100
AcDbLine
 10
916.559094235713
 20
1683.86010153411
 30
0.0
 11
1782.559094235713
 21
1683.86010153411
 31
0.0
  0
LINE
  5
2780
330
1F
100
AcDbEntity
  8
実形
100
AcDbLine
 10
904.5590942357129
 20
1155.86010153411
 30
0.0
 11
904.5590942357129
 21
1671.86010153411
 31
0.0
  0
LINE
  5
282F
330
1F
100
AcDbEntity
  8
実形
100
AcDbLine
 10
916.559094235713
 20
1148.86010153411
 30
0.0
 11
1782.559094235713
 21
1148.86010153411
 31
0.0
  0
LINE
  5
2830
330
1F
100
AcDbEntity
  8
実形
100
AcDbLine
 10
909.559094235713
 20
1155.86010153411
 30
0.0
 11
909.559094235713
 21
1671.86010153411
 31
0.0
  0
LINE
  5
2831
330
1F
100
AcDbEntity
  8
実形
100
AcDbLine
 10
1789.559094235713
 20
1155.86010153411
 30
0.0
 11
1789.559094235713
 21
1671.86010153411
 31
0.0
  0
LINE
  5
2832
330
1F
100
AcDbEntity
  8
実形
100
AcDbLine
 10
916.559094235713
 20
1678.86010153411
 30
0.0
 11
1782.559094235713
 21
1678.86010153411
 31
0.0
  0
ARC
  5
2833
330
1F
100
AcDbEntity
  8
実形
100
AcDbCircle
 10
1782.559094235713
 20
1155.86010153411
 30
0.0
 40
12.0
100
AcDbArc
 50
270.0
 51
0.0
  0
ARC
  5
2834
330
1F
100
AcDbEntity
  8
実形
100
AcDbCircle
 10
1782.559094235713
 20
1671.86010153411
 30
0.0
 40
12.0
100
AcDbArc
 50
0.0
 51
90.0
  0
ARC
  5
2835
330
1F
100
AcDbEntity
  8
実形
100
AcDbCircle
 10
916.559094235713
 20
1671.86010153411
 30
0.0
 40
12.0
100
AcDbArc
 50
90.00000000000003
 51
180.0
  0
ARC
  5
2836
330
1F
100
AcDbEntity
  8
実形
100
AcDbCircle
 10
916.559094235713
 20
1155.86010153411
 30
0.0
 40
12.0
100
AcDbArc
 50
180.0
 51
270.0
  0
ARC
  5
2837
330
1F
100
AcDbEntity
  8
実形
100
AcDbCircle
 10
916.559094235713
 20
1155.86010153411
 30
0.0
 40
7.0
100
AcDbArc
 50
180.0
 51
270.0
  0
ARC
  5
2838
330
1F
100
AcDbEntity
  8
実形
100
AcDbCircle
 10
916.559094235713
 20
1671.86010153411
 30
0.0
 40
7.0
100
AcDbArc
 50
90.0
 51
180.0
  0
ARC
  5
2839
330
1F
100
AcDbEntity
  8
実形
100
AcDbCircle
 10
1782.559094235713
 20
1671.86010153411
 30
0.0
 40
7.0
100
AcDbArc
 50
0.0
 51
89.99999999999998
  0
ARC
  5
283B
330
1F
100
AcDbEntity
  8
実形
100
AcDbCircle
 10
1782.559094235713
 20
1155.86010153411
 30
0.0
 40
7.0
100
AcDbArc
 50
270.0
 51
0.0
  0
LINE
  5
2887
330
1F
100
AcDbEntity
  8
0
100
AcDbLine
 10
936.5590942357131
 20
805.2661477511847
 30
0.0
 11
922.5590942357129
 21
805.2661477511849
 31
0.0
  0
LINE
  5
2889
330
1F
100
AcDbEntity
  8
0
100
AcDbLine
 10
936.5590942357131
 20
805.2661477511849
 30
0.0
 11
922.5590942357129
 21
805.2661477511849
 31
0.0
  0
LINE
  5
288C
330
1F
100
AcDbEntity
  8
実形
100
AcDbLine
 10
916.559094235713
 20
800.2661477511848
 30
0.0
 11
916.559094235713
 21
790.2661477511849
 31
0.0
  0
LINE
  5
288D
330
1F
100
AcDbEntity
  8
実形
100
AcDbLine
 10
919.559094235713
 20
800.2661477511848
 30
0.0
 11
919.559094235713
 21
790.2661477511849
 31
0.0
  0
LINE
  5
288E
330
1F
100
AcDbEntity
  8
実形
100
AcDbLine
 10
922.5590942357129
 20
805.2661477511849
 30
0.0
 11
909.559094235713
 21
805.2661477511849
 31
0.0
  0
LINE
  5
288F
330
1F
100
AcDbEntity
  8
実形
100
AcDbLine
 10
1703.311584626995
 20
800.2661477511848
 30
0.0
 11
939.5590942357134
 21
800.2661477511848
 31
0.0
  0
LINE
  5
2890
330
1F
100
AcDbEntity
  8
実形
100
AcDbLine
 10
909.559094235713
 20
805.2661477511849
 30
0.0
 11
904.5590942357129
 21
800.2661477511848
 31
0.0
  0
LINE
  5
2892
330
1F
100
AcDbEntity
  8
実形
100
AcDbLine
 10
919.559094235713
 20
790.2661477511849
 30
0.0
 11
939.5590942357134
 21
790.2661477511849
 31
0.0
  0
LINE
  5
28D0
330
1F
100
AcDbEntity
  8
0
100
AcDbLine
 10
1762.559094235713
 20
805.2661477511849
 30
0.0
 11
1776.559094235713
 21
805.2661477511849
 31
0.0
  0
LINE
  5
28D5
330
1F
100
AcDbEntity
  8
0
100
AcDbLine
 10
1762.559094235712
 20
805.2661477511849
 30
0.0
 11
1776.559094235713
 21
805.2661477511849
 31
0.0
  0
LINE
  5
28D6
330
1F
100
AcDbEntity
  8
0
100
AcDbLine
 10
1762.559094235713
 20
805.2661477511909
 30
0.0
 11
1776.559094235713
 21
805.2661477511911
 31
0.0
  0
LINE
  5
28D7
330
1F
100
AcDbEntity
  8
実形
100
AcDbLine
 10
1782.559094235713
 20
800.266147751191
 30
0.0
 11
1782.559094235713
 21
790.2661477511911
 31
0.0
  0
LINE
  5
28D8
330
1F
100
AcDbEntity
  8
実形
100
AcDbLine
 10
1779.559094235713
 20
800.266147751191
 30
0.0
 11
1779.559094235713
 21
790.2661477511911
 31
0.0
  0
LINE
  5
28D9
330
1F
100
AcDbEntity
  8
実形
100
AcDbLine
 10
1776.559094235713
 20
805.2661477511911
 30
0.0
 11
1789.559094235713
 21
805.2661477511913
 31
0.0
  0
LINE
  5
28DA
330
1F
100
AcDbEntity
  8
実形
100
AcDbLine
 10
1295.80660384443
 20
800.2661477511836
 30
0.0
 11
1794.559094235713
 21
800.2661477511914
 31
0.0
  0
LINE
  5
28DB
330
1F
100
AcDbEntity
  8
実形
100
AcDbLine
 10
1789.559094235713
 20
805.2661477511913
 30
0.0
 11
1794.559094235713
 21
800.2661477511914
 31
0.0
  0
LINE
  5
28DC
330
1F
100
AcDbEntity
  8
実形
100
AcDbLine
 10
1759.559094235712
 20
790.2661477511849
 30
0.0
 11
1779.559094235713
 21
790.2661477511849
 31
0.0
  0
LINE
  5
2994
330
1F
100
AcDbEntity
  8
0
100
AcDbLine
 10
2141.91476544398
 20
1175.86010153411
 30
0.0
 11
2141.91476544398
 21
1161.86010153411
 31
0.0
  0
LINE
  5
2995
330
1F
100
AcDbEntity
  8
0
100
AcDbLine
 10
2156.91476544398
 20
1190.86010153411
 30
0.0
 11
2156.91476544398
 21
1181.86010153411
 31
0.0
  0
LINE
  5
2996
330
1F
100
AcDbEntity
  8
実形
100
AcDbLine
 10
2141.91476544398
 20
1161.86010153411
 30
0.0
 11
2141.91476544398
 21
1178.86010153411
 31
0.0
  0
LINE
  5
2997
330
1F
100
AcDbEntity
  8
実形
100
AcDbLine
 10
2156.91476544398
 20
1181.86010153411
 30
0.0
 11
2156.91476544398
 21
1190.86010153411
 31
0.0
  0
LINE
  5
2998
330
1F
100
AcDbEntity
  8
実形
100
AcDbLine
 10
2141.91476544398
 20
1665.86010153411
 30
0.0
 11
2141.91476544398
 21
1161.86010153411
 31
0.0
  0
LINE
  5
2999
330
1F
100
AcDbEntity
  8
0
100
AcDbLine
 10
2141.91476544398
 20
1678.86010153411
 30
0.0
 11
2141.91476544398
 21
1148.86010153411
 31
0.0
  0
LINE
  5
299A
330
1F
100
AcDbEntity
  8
0
100
AcDbLine
 10
2141.91476544398
 20
1175.86010153411
 30
0.0
 11
2141.91476544398
 21
1161.86010153411
 31
0.0
  0
LINE
  5
299B
330
1F
100
AcDbEntity
  8
実形
100
AcDbLine
 10
2141.91476544398
 20
1403.750610889927
 30
0.0
 11
2141.91476544398
 21
1161.86010153411
 31
0.0
  0
LINE
  5
299C
330
1F
100
AcDbEntity
  8
実形
100
AcDbLine
 10
2146.91476544398
 20
1155.86010153411
 30
0.0
 11
2156.91476544398
 21
1155.86010153411
 31
0.0
  0
LINE
  5
299D
330
1F
100
AcDbEntity
  8
実形
100
AcDbLine
 10
2146.91476544398
 20
1158.86010153411
 30
0.0
 11
2156.91476544398
 21
1158.86010153411
 31
0.0
  0
LINE
  5
299E
330
1F
100
AcDbEntity
  8
実形
100
AcDbLine
 10
2141.91476544398
 20
1161.86010153411
 30
0.0
 11
2141.91476544398
 21
1148.86010153411
 31
0.0
  0
LINE
  5
299F
330
1F
100
AcDbEntity
  8
実形
100
AcDbLine
 10
2146.91476544398
 20
1433.969592178293
 30
0.0
 11
2146.91476544398
 21
1143.86010153411
 31
0.0
  0
LINE
  5
29A0
330
1F
100
AcDbEntity
  8
実形
100
AcDbLine
 10
2141.91476544398
 20
1148.86010153411
 30
0.0
 11
2146.91476544398
 21
1143.86010153411
 31
0.0
  0
LINE
  5
29A1
330
1F
100
AcDbEntity
  8
実形
100
AcDbLine
 10
2141.914765443987
 20
1161.860101534111
 30
0.0
 11
2141.914765443983
 21
1403.750610889927
 31
0.0
  0
LINE
  5
29A2
330
1F
100
AcDbEntity
  8
0
100
AcDbLine
 10
2141.91476544398
 20
1148.860101534111
 30
0.0
 11
2141.91476544398
 21
1678.860101534111
 31
0.0
  0
LINE
  5
29A3
330
1F
100
AcDbEntity
  8
実形
100
AcDbLine
 10
2156.91476544398
 20
1158.86010153411
 30
0.0
 11
2156.91476544398
 21
1181.86010153411
 31
0.0
  0
LINE
  5
29B9
330
1F
100
AcDbEntity
  8
実形
100
AcDbLine
 10
2141.91476544398
 20
1665.860101534109
 30
0.0
 11
2141.91476544398
 21
1651.86010153411
 31
0.0
  0
LINE
  5
29BA
330
1F
100
AcDbEntity
  8
実形
100
AcDbLine
 10
2141.91476544398
 20
1665.860101534109
 30
0.0
 11
2141.91476544398
 21
1161.86010153411
 31
0.0
  0
LINE
  5
29BB
330
1F
100
AcDbEntity
  8
実形
 62
     3
100
AcDbLine
 10
2141.91476544398
 20
1665.860101534109
 30
0.0
 11
2141.91476544398
 21
1678.86010153411
 31
0.0
  0
LINE
  5
29BC
330
1F
100
AcDbEntity
  8
0
100
AcDbLine
 10
2141.91476544398
 20
1678.860101534109
 30
0.0
 11
2141.91476544398
 21
1148.86010153411
 31
0.0
  0
LINE
  5
29BD
330
1F
100
AcDbEntity
  8
0
100
AcDbLine
 10
2141.91476544398
 20
1148.860101534111
 30
0.0
 11
2141.91476544398
 21
1678.86010153411
 31
0.0
  0
LINE
  5
29BE
330
1F
100
AcDbEntity
  8
0
100
AcDbLine
 10
2141.91476544398
 20
1651.86010153411
 30
0.0
 11
2141.91476544398
 21
1665.86010153411
 31
0.0
  0
LINE
  5
29BF
330
1F
100
AcDbEntity
  8
実形
100
AcDbLine
 10
2141.91476544398
 20
1423.969592178293
 30
0.0
 11
2141.91476544398
 21
1665.86010153411
 31
0.0
  0
LINE
  5
29C0
330
1F
100
AcDbEntity
  8
実形
100
AcDbLine
 10
2146.91476544398
 20
1671.86010153411
 30
0.0
 11
2156.91476544398
 21
1671.86010153411
 31
0.0
  0
LINE
  5
29C1
330
1F
100
AcDbEntity
  8
実形
100
AcDbLine
 10
2146.91476544398
 20
1668.86010153411
 30
0.0
 11
2156.91476544398
 21
1668.86010153411
 31
0.0
  0
LINE
  5
29C2
330
1F
100
AcDbEntity
  8
実形
100
AcDbLine
 10
2141.91476544398
 20
1665.86010153411
 30
0.0
 11
2141.91476544398
 21
1678.86010153411
 31
0.0
  0
LINE
  5
29C3
330
1F
100
AcDbEntity
  8
実形
100
AcDbLine
 10
2146.914765443979
 20
1423.969592178293
 30
0.0
 11
2146.91476544398
 21
1683.86010153411
 31
0.0
  0
LINE
  5
29C4
330
1F
100
AcDbEntity
  8
実形
100
AcDbLine
 10
2141.91476544398
 20
1678.86010153411
 30
0.0
 11
2146.91476544398
 21
1683.86010153411
 31
0.0
  0
LINE
  5
29C5
330
1F
100
AcDbEntity
  8
実形
100
AcDbLine
 10
2141.914765443987
 20
1665.86010153411
 30
0.0
 11
2141.914765443982
 21
1423.969592178293
 31
0.0
  0
LINE
  5
29C6
330
1F
100
AcDbEntity
  8
実形
100
AcDbLine
 10
2156.91476544398
 20
1668.86010153411
 30
0.0
 11
2156.91476544398
 21
1641.360101534109
 31
0.0
  0
LINE
  5
2A06
330
1F
100
AcDbEntity
  8
補助
100
AcDbLine
 10
2784.0
 20
1829.0
 30
0.0
 11
2019.387286519282
 21
1829.0
 31
0.0
  0
LINE
  5
2A07
330
1F
100
AcDbEntity
  8
補助
100
AcDbLine
 10
2202.547653420927
 20
1829.0
 30
0.0
 11
2202.547653420927
 21
1959.0
 31
0.0
  0
LINE
  5
2A08
330
1F
100
AcDbEntity
  8
補助
100
AcDbLine
 10
2019.387286519283
 20
1829.0
 30
0.0
 11
2019.387286519283
 21
1959.0
 31
0.0
  0
LINE
  5
2A09
330
1F
100
AcDbEntity
  8
補助
100
AcDbLine
 10
2559.0
 20
1829.0
 30
0.0
 11
2559.0
 21
1959.0
 31
0.0
  0
TEXT
  5
2A0A
330
1F
100
AcDbEntity
  8
実形
100
AcDbText
 10
2048.227810657787
 20
1845.557142857142
 30
0.0
 40
30.0
  1
ボウル
  7
明朝
 72
     4
 11
2114.056382086358
 21
1861.499999999999
 31
0.0
100
AcDbText
  0
TEXT
  5
2A0B
330
1F
100
AcDbEntity
  8
実形
100
AcDbText
 10
2594.7
 20
1846.842857142856
 30
0.0
 40
30.0
  1
0.7ｍｍ
  7
明朝
 72
     4
 11
2671.5
 21
1861.499999999999
 31
0.0
100
AcDbText
  0
TEXT
  5
2A0C
330
1F
100
AcDbEntity
  8
実形
100
AcDbText
 10
2217.131154822151
 20
1846.328571428571
 30
0.0
 40
30.0
  1
SUS304（球状EB）
  7
明朝
 72
     4
 11
2392.674011965008
 21
1861.499999999999
 31
0.0
100
AcDbText
  0
TEXT
  5
2A16
330
1F
100
AcDbEntity
  8
実形
100
AcDbText
 10
2070.170667800645
 20
1911.242857142857
 30
0.0
 40
30.0
  1
天板
  7
明朝
 72
     4
 11
2114.056382086359
 21
1926.5
 31
0.0
100
AcDbText
  0
TEXT
  5
2A17
330
1F
100
AcDbEntity
  8
実形
100
AcDbText
 10
2594.700000000001
 20
1911.842857142856
 30
0.0
 40
30.0
  1
0.7ｍｍ
  7
明朝
 72
     4
 11
2671.500000000001
 21
1926.5
 31
0.0
100
AcDbText
  0
TEXT
  5
2A18
330
1F
100
AcDbEntity
  8
実形
100
AcDbText
 10
2217.131154822152
 20
1910.728571428571
 30
0.0
 40
30.0
  1
SUS304（市松EB）
  7
明朝
 72
     4
 11
2392.674011965008
 21
1926.5
 31
0.0
100
AcDbText
  0
DIMENSION
  5
2BF2
330
1F
100
AcDbEntity
  8
実形
100
AcDbDimension
  2
*D25
 10
1877.679761692136
 20
615.2661477511848
 30
0.0
 11
1873.244863024216
 21
654.8222137574775
 31
0.0
 70
   160
  1
15
 71
     5
 42
15.32554687587674
  3
ISO-25
100
AcDbAlignedDimension
 13
1760.353613479475
 23
630.5916946270618
 33
0.0
 14
1760.377003152915
 24
615.266147751185
 34
0.0
 50
90.0
100
AcDbRotatedDimension
1001
ACAD
1000
DSTYLE
1002
{
1070
   279
1070
     1
1002
}
  0
DIMENSION
  5
2BF3
330
1F
100
AcDbEntity
  8
実形
100
AcDbDimension
  2
*D26
 10
1877.679761692136
 20
630.449674969886
 30
0.0
 11
1878.161691276164
 21
590.9295496990207
 31
0.0
 70
   160
  1
7
 71
     5
 42
25.18352721870122
  3
ISO-25
100
AcDbAlignedDimension
 13
1759.97757740204
 23
605.2661477511849
 33
0.0
 14
1788.73640522139
 24
630.4496749698861
 34
0.0
 50
90.0
100
AcDbRotatedDimension
1001
ACAD
1000
DSTYLE
1002
{
1070
   279
1070
     1
1002
}
  0
DIMENSION
  5
2BF4
330
1F
100
AcDbEntity
  8
実形
100
AcDbDimension
  2
*D27
 10
1964.220660130322
 20
615.266147751185
 30
0.0
 11
1945.470660130322
 21
710.2661477511852
 31
0.0
 70
    32
 71
     5
 42
189.9999999999998
  3
ISO-25
100
AcDbAlignedDimension
 13
1794.935227564574
 23
805.2661477511849
 33
0.0
 14
1794.935227564574
 24
615.266147751185
 34
0.0
 50
90.0
100
AcDbRotatedDimension
1001
ACAD
1000
DSTYLE
1002
{
1070
   279
1070
     1
1002
}
  0
DIMENSION
  5
2BF5
330
1F
100
AcDbEntity
  8
実形
100
AcDbDimension
  2
*D28
 10
1877.679761692135
 20
790.2661477511847
 30
0.0
 11
1875.924099327358
 21
827.5799926664557
 31
0.0
 70
   160
 71
     5
 42
15.0
  3
ISO-25
100
AcDbAlignedDimension
 13
1759.559094235713
 23
805.2661477511849
 33
0.0
 14
1759.559094235713
 24
790.2661477511849
 34
0.0
 50
90.0
100
AcDbRotatedDimension
1001
ACAD
1000
DSTYLE
1002
{
1070
   279
1070
     1
1002
}
  0
DIMENSION
  5
2BF6
330
1F
100
AcDbEntity
  8
実形
100
AcDbDimension
  2
*D29
 10
1964.220660130322
 20
615.266147751185
 30
0.0
 11
1945.470660130322
 21
710.2661477511852
 31
0.0
 70
    32
 71
     5
 42
189.9999999999998
  3
ISO-25
100
AcDbAlignedDimension
 13
1794.935227564574
 23
805.2661477511849
 33
0.0
 14
1794.935227564574
 24
615.266147751185
 34
0.0
 50
90.0
100
AcDbRotatedDimension
1001
ACAD
1000
DSTYLE
1002
{
1070
   279
1070
     1
1002
}
  0
LINE
  5
2E18
330
1F
100
AcDbEntity
  8
実形
100
AcDbLine
 10
924.559094235713
 20
790.2661477511847
 30
0.0
 11
1209.559094235713
 21
790.2661477511847
 31
0.0
  0
CIRCLE
  5
2E19
330
1F
100
AcDbEntity
  8
実形
100
AcDbCircle
 10
1067.059094235713
 20
1468.86010153411
 30
0.0
 40
44.0
  0
CIRCLE
  5
2E1A
330
1F
100
AcDbEntity
  8
実形
100
AcDbCircle
 10
1067.059094235713
 20
1468.86010153411
 30
0.0
 40
58.0
  0
LINE
  5
2E1B
330
1F
100
AcDbEntity
  8
センター
 48
0.5
370
    15
100
AcDbLine
 10
981.8443933793245
 20
1468.86010153411
 30
0.0
 11
1152.273795092101
 21
1468.86010153411
 31
0.0
  0
LINE
  5
2E1C
330
1F
100
AcDbEntity
  8
センター
 48
0.5
370
    15
100
AcDbLine
 10
1067.059094235713
 20
1554.074802390498
 30
0.0
 11
1067.059094235713
 21
1383.645400677721
 31
0.0
  0
LINE
  5
2E1D
330
1F
100
AcDbEntity
  8
センター
 48
0.5
370
    15
100
AcDbLine
 10
1067.059094235713
 20
728.4827716265986
 30
0.0
 11
1067.059094235713
 21
572.0669513192984
 31
0.0
  0
TEXT
  5
2E20
330
1F
100
AcDbEntity
  8
寸法
370
    18
100
AcDbText
 10
990.4727041028664
 20
1328.75030695186
 30
0.0
 40
25.0
  1
1500R
100
AcDbText
  0
TEXT
  5
2E21
330
1F
100
AcDbEntity
  8
寸法
370
    18
100
AcDbText
 10
1028.178716467774
 20
1247.123282410042
 30
0.0
 40
25.0
  1
110R
100
AcDbText
  0
TEXT
  5
2E22
330
1F
100
AcDbEntity
  8
寸法
100
AcDbText
 10
1098.553854020233
 20
715.7045410514357
 30
0.0
 40
25.0
  1
30R
100
AcDbText
  0
DIMENSION
  5
2E2E
330
1F
100
AcDbEntity
  8
寸法
100
AcDbDimension
  2
*D36
 10
1111.059094235713
 20
523.8387404501122
 30
0.0
 11
1067.059094235713
 21
542.5887404501122
 31
0.0
 70
    32
 71
     5
 42
88.0
  3
ISO-25
100
AcDbAlignedDimension
 13
1023.059094235713
 23
640.2661477511851
 33
0.0
 14
1111.059094235713
 24
640.2661477511851
 34
0.0
100
AcDbRotatedDimension
1001
ACAD
1000
DSTYLE
1002
{
1070
    41
1040
25.0
1070
   371
1070
    18
1002
}
  0
DIMENSION
  5
2E2F
330
1F
100
AcDbEntity
  8
寸法
100
AcDbDimension
  2
*D37
 10
1125.059094235713
 20
463.8793418811833
 30
0.0
 11
1067.059094235713
 21
482.6293418811833
 31
0.0
 70
    32
 71
     5
 42
116.0
  3
ISO-25
100
AcDbAlignedDimension
 13
1009.059094235713
 23
640.2661477511851
 33
0.0
 14
1125.059094235713
 24
640.2661477511851
 34
0.0
100
AcDbRotatedDimension
1001
ACAD
1000
DSTYLE
1002
{
1070
    41
1040
25.0
1070
   371
1070
    18
1002
}
  0
LEADER
  5
2E30
330
1F
100
AcDbEntity
  8
0
100
AcDbLeader
  3
ISO-25
 40
25.0
 41
16.66666666666666
 76
     2
 10
946.4823620685137
 20
1426.074836030123
 30
0.0
 10
985.759454704018
 20
1366.424314982427
 30
0.0
213
0.0
223
-12.5
233
0.0
1001
ACAD
1000
DSTYLE
1002
{
1070
    41
1040
25.0
1070
   147
1040
6.25
1070
    77
1070
     0
1070
    73
1070
     1
1070
    74
1070
     1
1070
   279
1070
     1
1070
   342
1005
DA
1002
}
  0
LEADER
  5
2E31
330
1F
100
AcDbEntity
  8
0
100
AcDbLeader
  3
ISO-25
 40
25.0
 41
16.66666666666666
 76
     2
 10
1153.865404314326
 20
1218.867770435238
 30
0.0
 10
1109.875062279973
 20
1251.832532818675
 30
0.0
213
0.0
223
-12.5
233
0.0
1001
ACAD
1000
DSTYLE
1002
{
1070
    41
1040
25.0
1070
   147
1040
6.25
1070
    77
1070
     0
1070
    73
1070
     1
1070
    74
1070
     1
1070
   279
1070
     1
1070
   342
1005
DA
1002
}
  0
LEADER
  5
2E32
330
1F
100
AcDbEntity
  8
0
100
AcDbLeader
  3
ISO-25
 40
25.0
 41
16.66666666666666
 76
     2
 10
1185.404772694061
 20
663.879255207934
 30
0.0
 10
1149.216884188591
 20
706.0626257451441
 30
0.0
213
0.0
223
-12.5
233
0.0
1001
ACAD
1000
DSTYLE
1002
{
1070
    41
1040
25.0
1070
   147
1040
6.25
1070
    77
1070
     0
1070
    73
1070
     1
1070
    74
1070
     1
1070
   279
1070
     1
1070
   342
1005
DA
1002
}
  0
LINE
  5
2E33
330
1F
100
AcDbEntity
  8
実形
100
AcDbLine
 10
924.559094235713
 20
790.2661477511847
 30
0.0
 11
1209.559094235713
 21
790.2661477511847
 31
0.0
  0
LINE
  5
2E34
330
1F
100
AcDbEntity
  8
実形
100
AcDbLine
 10
1209.559094235713
 20
790.2661477511847
 30
0.0
 11
924.559094235713
 21
790.2661477511847
 31
0.0
  0
LINE
  5
2E35
330
1F
100
AcDbEntity
  8
実形
100
AcDbLine
 10
1009.059094235713
 20
650.2661477511851
 30
0.0
 11
1009.059094235713
 21
640.2661477511851
 31
0.0
  0
LINE
  5
2E36
330
1F
100
AcDbEntity
  8
実形
100
AcDbLine
 10
1009.059094235713
 20
640.2661477511851
 30
0.0
 11
1125.059094235713
 21
640.2661477511851
 31
0.0
  0
LINE
  5
2E37
330
1F
100
AcDbEntity
  8
実形
100
AcDbLine
 10
1125.059094235713
 20
640.2661477511851
 30
0.0
 11
1125.059094235713
 21
650.2661477511851
 31
0.0
  0
LINE
  5
2E38
330
1F
100
AcDbEntity
  8
実形
100
AcDbLine
 10
1125.059094235713
 20
650.2661477511851
 30
0.0
 11
1009.059094235713
 21
650.2661477511851
 31
0.0
  0
LINE
  5
2E39
330
1F
100
AcDbEntity
  8
実形
100
AcDbLine
 10
939.5590942357129
 20
790.2661477511847
 30
0.0
 11
939.5590942357129
 21
680.266147751185
 31
0.0
  0
LINE
  5
2E3C
330
1F
100
AcDbEntity
  8
実形
100
AcDbLine
 10
1194.559094235713
 20
680.2661477511851
 30
0.0
 11
1194.559094235713
 21
790.2661477511847
 31
0.0
  0
LINE
  5
2E4F
330
1F
100
AcDbEntity
  8
実形
100
AcDbLine
 10
849.6952234652251
 20
805.2661477511851
 30
0.0
 11
729.4909925940573
 21
805.2661477511851
 31
0.0
  0
LINE
  5
2E50
330
1F
100
AcDbEntity
  8
実形
100
AcDbLine
 10
849.6952234652251
 20
650.2661477511851
 30
0.0
 11
729.4909925940573
 21
650.2661477511852
 31
0.0
  0
LINE
  5
2E51
330
1F
100
AcDbEntity
  8
実形
100
AcDbLine
 10
849.6952234652253
 20
640.2661477511851
 30
0.0
 11
796.4909925940574
 21
640.2661477511851
 31
0.0
  0
TEXT
  5
2E52
330
1F
100
AcDbEntity
  8
寸法
 62
     0
370
    18
100
AcDbText
 10
716.1996650668789
 20
687.7487072275844
 30
0.0
 40
25.0
  1
155
 50
90.0
100
AcDbText
  0
LINE
  5
2E53
330
1F
100
AcDbEntity
  8
実形
100
AcDbLine
 10
729.4909925940573
 20
805.2661477511851
 30
0.0
 11
729.4909925940573
 21
650.2661477511851
 31
0.0
  0
TEXT
  5
2E54
330
1F
100
AcDbEntity
  8
寸法
 62
     0
370
    18
100
AcDbText
 10
728.0364641641515
 20
803.6660571408942
 30
0.0
 40
3.0
  1
●
100
AcDbText
  0
TEXT
  5
2E55
330
1F
100
AcDbEntity
  8
寸法
 62
     0
370
    18
100
AcDbText
 10
728.1064209847479
 20
648.73649122301
 30
0.0
 40
3.0
  1
●
100
AcDbText
  0
TEXT
  5
2E59
330
1F
100
AcDbEntity
  8
寸法
 62
     0
370
    18
100
AcDbText
 10
795.1366315690681
 20
648.978267877062
 30
0.0
 40
3.0
  1
●
100
AcDbText
  0
LINE
  5
2E5B
330
1F
100
AcDbEntity
  8
実形
100
AcDbLine
 10
796.4909925940574
 20
650.2661477511851
 30
0.0
 11
796.4909925940574
 21
640.2661477511851
 31
0.0
  0
TEXT
  5
2E5C
330
1F
100
AcDbEntity
  8
寸法
 62
     0
370
    18
100
AcDbText
 10
795.0909090878374
 20
638.8127518348424
 30
0.0
 40
3.0
  1
●
100
AcDbText
  0
TEXT
  5
2E5D
330
1F
100
AcDbEntity
  8
寸法
 62
     0
370
    18
100
AcDbText
 10
776.6106267488606
 20
618.9167724341864
 30
0.0
 40
25.0
  1
7
 50
90.0
100
AcDbText
  0
LINE
  5
2E5E
330
1F
100
AcDbEntity
  8
実形
100
AcDbLine
 10
849.6952234652253
 20
650.2661477511851
 30
0.0
 11
729.4909925940573
 21
650.2661477511852
 31
0.0
  0
LINE
  5
2FE6
330
1F
100
AcDbEntity
  8
実形
100
AcDbLine
 10
672.3721056737668
 20
1633.86010153411
 30
0.0
 11
672.3721056737668
 21
1163.86010153411
 31
0.0
  0
LINE
  5
2FE7
330
1F
100
AcDbEntity
  8
センター
 48
0.5
370
    15
100
AcDbLine
 10
593.9078943527237
 20
1468.86010153411
 30
0.0
 11
484.9969420956622
 21
1468.86010153411
 31
0.0
  0
TEXT
  5
2FE8
330
1F
100
AcDbEntity
  8
寸法
370
    18
100
AcDbText
 10
580.6117474199909
 20
1242.44134018862
 30
0.0
 40
25.0
  1
30R
100
AcDbText
  0
DIMENSION
  5
2FE9
330
1F
100
AcDbEntity
  8
寸法
100
AcDbDimension
  2
*D38
 10
397.0659615818468
 20
1424.86010153411
 30
0.0
 11
378.3159615818465
 21
1468.86010153411
 31
0.0
 70
    32
 71
     5
 42
88.0
  3
ISO-25
100
AcDbAlignedDimension
 13
507.3721056737667
 23
1512.86010153411
 33
0.0
 14
507.3721056737667
 24
1424.86010153411
 34
0.0
 50
90.0
100
AcDbRotatedDimension
1001
ACAD
1000
DSTYLE
1002
{
1070
    41
1040
25.0
1070
   371
1070
    18
1002
}
  0
DIMENSION
  5
2FEA
330
1F
100
AcDbEntity
  8
寸法
100
AcDbDimension
  2
*D39
 10
332.1443736170049
 20
1410.86010153411
 30
0.0
 11
313.3943736170047
 21
1468.86010153411
 31
0.0
 70
    32
 71
     5
 42
116.0
  3
ISO-25
100
AcDbAlignedDimension
 13
507.3721056737667
 23
1526.86010153411
 33
0.0
 14
507.3721056737667
 24
1410.86010153411
 34
0.0
 50
90.0
100
AcDbRotatedDimension
1001
ACAD
1000
DSTYLE
1002
{
1070
    41
1040
25.0
1070
   371
1070
    18
1002
}
  0
LEADER
  5
2FEB
330
1F
100
AcDbEntity
  8
0
100
AcDbLeader
  3
ISO-25
 40
25.0
 41
16.66666666666666
 76
     2
 10
547.0784312247042
 20
1196.558785407364
 30
0.0
 10
574.137235085378
 20
1240.24051056918
 30
0.0
211
-1.0
221
0.0
231
0.0
213
0.0
223
-12.5
233
0.0
1001
ACAD
1000
DSTYLE
1002
{
1070
    41
1040
25.0
1070
   147
1040
6.25
1070
    77
1070
     0
1070
    73
1070
     1
1070
    74
1070
     1
1070
   279
1070
     1
1070
   342
1005
DA
1002
}
  0
LINE
  5
2FEC
330
1F
100
AcDbEntity
  8
実形
100
AcDbLine
 10
672.3721056737668
 20
1633.86010153411
 30
0.0
 11
672.3721056737668
 21
1163.86010153411
 31
0.0
  0
LINE
  5
2FED
330
1F
100
AcDbEntity
  8
実形
100
AcDbLine
 10
517.3721056737668
 20
1410.86010153411
 30
0.0
 11
507.3721056737667
 21
1410.86010153411
 31
0.0
  0
LINE
  5
2FEE
330
1F
100
AcDbEntity
  8
実形
100
AcDbLine
 10
507.3721056737667
 20
1410.86010153411
 30
0.0
 11
507.3721056737667
 21
1526.86010153411
 31
0.0
  0
LINE
  5
2FEF
330
1F
100
AcDbEntity
  8
実形
100
AcDbLine
 10
507.3721056737667
 20
1526.86010153411
 30
0.0
 11
517.3721056737668
 21
1526.86010153411
 31
0.0
  0
LINE
  5
2FF0
330
1F
100
AcDbEntity
  8
実形
100
AcDbLine
 10
517.3721056737668
 20
1526.86010153411
 30
0.0
 11
517.3721056737668
 21
1410.86010153411
 31
0.0
  0
LINE
  5
2FF1
330
1F
100
AcDbEntity
  8
実形
100
AcDbLine
 10
672.3721056737668
 20
1618.86010153411
 30
0.0
 11
557.8769336164652
 21
1618.86010153411
 31
0.0
  0
LINE
  5
2FF2
330
1F
100
AcDbEntity
  8
実形
100
AcDbLine
 10
528.2679033820311
 20
1593.687660811463
 30
0.0
 11
517.3721056737668
 21
1526.86010153411
 31
0.0
  0
LINE
  5
2FF3
330
1F
100
AcDbEntity
  8
実形
100
AcDbLine
 10
517.3721056737668
 20
1410.86010153411
 30
0.0
 11
530.5575979373745
 21
1206.92448785697
 31
0.0
  0
LINE
  5
2FF4
330
1F
100
AcDbEntity
  8
実形
100
AcDbLine
 10
560.4950894771291
 20
1178.86010153411
 30
0.0
 11
672.3721056737668
 21
1178.86010153411
 31
0.0
  0
ARC
  5
2FF5
330
1F
100
AcDbEntity
  8
実形
100
AcDbCircle
 10
557.8769336164652
 20
1588.86010153411
 30
0.0
 40
30.0
100
AcDbArc
 50
90.0
 51
170.7397784688251
  0
ARC
  5
2FF6
330
1F
100
AcDbEntity
  8
実形
100
AcDbCircle
 10
560.4950894771291
 20
1208.86010153411
 30
0.0
 40
30.0
100
AcDbArc
 50
183.6993194922839
 51
270.0
  0
LINE
  5
3066
330
1F
100
AcDbEntity
  8
実形
100
AcDbLine
 10
939.5590942357134
 20
805.2661477511845
 30
0.0
 11
1327.039123492307
 21
805.2661477511851
 31
0.0
  0
LINE
  5
3067
330
1F
100
AcDbEntity
  8
実形
100
AcDbLine
 10
939.5590942357133
 20
800.2661477511848
 30
0.0
 11
904.5590942357129
 21
800.2661477511848
 31
0.0
  0
LINE
  5
3096
330
1F
100
AcDbEntity
  8
補助
100
AcDbLine
 10
2064.0
 20
264.0
 30
0.0
 11
2784.0
 21
264.0
 31
0.0
  0
TEXT
  5
309F
330
1F
100
AcDbEntity
  8
0
100
AcDbText
 10
2204.0
 20
216.5
 30
0.0
 40
30.0
  1
YME890-540W-GRM-L/R
 72
     4
 11
2484.0
 21
231.5
 31
0.0
100
AcDbText
  0
TEXT
  5
30A8
330
1F
100
AcDbEntity
  8
補助
100
AcDbText
 10
2086.666666666667
 20
214.0
 30
0.0
 40
35.0
  1
品番
 72
     4
 11
2124.0
 21
231.5
 31
0.0
100
AcDbText
  0
LINE
  5
30A9
330
1F
100
AcDbEntity
  8
補助
100
AcDbLine
 10
2184.0
 20
199.0
 30
0.0
 11
2184.0
 21
264.0
 31
0.0
  0
LINE
  5
30AA
330
1F
100
AcDbEntity
  8
実形
100
AcDbLine
 10
2184.0
 20
134.0
 30
0.0
 11
2184.0
 21
199.0
 31
0.0
  0
LINE
  5
323B
330
1F
100
AcDbEntity
  8
実形
100
AcDbLine
 10
1195.460590105564
 20
1277.513643433558
 30
0.0
 11
1196.619862135829
 21
1517.433942671278
 31
0.0
  0
LINE
  5
323C
330
1F
100
AcDbEntity
  8
実形
100
AcDbLine
 10
940.4635668346214
 20
1278.745764758091
 30
0.0
 11
941.6226345802929
 21
1518.623785721353
 31
0.0
  0
DIMENSION
  5
3242
330
1F
100
AcDbEntity
  8
実形
100
AcDbDimension
  2
*D51
 10
939.8760497229254
 20
1036.807958926578
 30
0.0
 11
1067.374561358397
 21
1055.557958926578
 31
0.0
 70
    32
 71
     5
 42
254.9970232709427
  3
ISO-25
100
AcDbAlignedDimension
 13
1194.873072993868
 23
1155.922440018559
 33
0.0
 14
939.8760497229254
 24
1157.154561343092
 34
0.0
100
AcDbRotatedDimension
1001
ACAD
1000
DSTYLE
1002
{
1070
   279
1070
     1
1002
}
  0
DIMENSION
  5
324F
330
1F
100
AcDbEntity
  8
実形
100
AcDbDimension
  2
*D52
 10
1239.873598305128
 20
1036.807958926578
 30
0.0
 11
1217.116765895809
 21
1041.659728910215
 31
0.0
 70
   160
 71
     5
 42
45.00030254758416
  3
ISO-25
100
AcDbAlignedDimension
 13
1194.873295757544
 23
1155.968542681632
 33
0.0
 14
1239.873598305128
 24
1155.922440018559
 34
0.0
100
AcDbRotatedDimension
1001
ACAD
1000
DSTYLE
1002
{
1070
   140
1040
21.0
1070
   279
1070
     1
1002
}
  0
DIMENSION
  5
328D
330
1F
100
AcDbEntity
  8
実形
100
AcDbDimension
  2
*D53
 10
1794.559094235713
 20
1036.807958926578
 30
0.0
 11
1832.856919277861
 21
1038.068121839123
 31
0.0
 70
   160
 71
     5
 42
34.99999999999955
  3
ISO-25
100
AcDbAlignedDimension
 13
1759.559094235713
 23
1155.922440018559
 33
0.0
 14
1794.559094235713
 24
1155.922440018559
 34
0.0
100
AcDbRotatedDimension
1001
ACAD
1000
DSTYLE
1002
{
1070
   279
1070
     1
1002
}
  0
DIMENSION
  5
32CA
330
1F
100
AcDbEntity
  8
実形
100
AcDbDimension
  2
*D54
 10
1759.559094235713
 20
989.0532822361747
 30
0.0
 11
1499.559094235713
 21
1007.803282236174
 31
0.0
 70
    32
 71
     5
 42
520.0000000000001
  3
ISO-25
100
AcDbAlignedDimension
 13
1239.559094235713
 23
1098.101467827458
 33
0.0
 14
1759.559094235713
 24
1098.101467827458
 34
0.0
100
AcDbRotatedDimension
1001
ACAD
1000
DSTYLE
1002
{
1070
   279
1070
     1
1002
}
  0
DIMENSION
  5
32E0
330
1F
100
AcDbEntity
  8
実形
100
AcDbDimension
  2
*D55
 10
904.5590942357129
 20
1036.807958926578
 30
0.0
 11
876.1844795358193
 21
1036.659267455577
 31
0.0
 70
   160
  1
35
 71
     5
 42
35.31017759691986
  3
ISO-25
100
AcDbAlignedDimension
 13
939.8692718326328
 23
1155.751824604182
 33
0.0
 14
904.5590942357129
 24
1155.922440018559
 34
0.0
100
AcDbRotatedDimension
1001
ACAD
1000
DSTYLE
1002
{
1070
   279
1070
     1
1002
}
  0
LINE
  5
3326
330
1F
100
AcDbEntity
  8
実形
100
AcDbLine
 10
1039.979214656743
 20
1178.26374726967
 30
0.0
 11
1094.978572617142
 21
1177.997995611437
 31
0.0
  0
DIMENSION
  5
3327
330
1F
100
AcDbEntity
  8
実形
100
AcDbDimension
  2
*D56
 10
785.2293600020621
 20
1143.86010153411
 30
0.0
 11
775.9933189471503
 21
1176.61010153411
 31
0.0
 70
   160
 71
     5
 42
35.0
  3
ISO-25
100
AcDbAlignedDimension
 13
884.3081791977493
 23
1178.86010153411
 33
0.0
 14
884.3081791977493
 24
1143.86010153411
 34
0.0
 50
90.0
100
AcDbRotatedDimension
1001
ACAD
1000
DSTYLE
1002
{
1070
   279
1070
     1
1002
}
  0
LINE
  5
3334
330
1F
100
AcDbEntity
  8
実形
100
AcDbLine
 10
1042.027782358744
 20
1618.139775424899
 30
0.0
 11
1097.027344603738
 21
1617.916302041124
 31
0.0
  0
DIMENSION
  5
3335
330
1F
100
AcDbEntity
  8
実形
100
AcDbDimension
  2
*D57
 10
785.2293600020621
 20
1178.86010153411
 30
0.0
 11
766.479360002062
 21
1398.449085056885
 31
0.0
 70
    32
  1
440
 71
     5
 42
439.17796704555
  3
ISO-25
100
AcDbAlignedDimension
 13
924.5796509248821
 23
1618.03806857966
 33
0.0
 14
886.0957238460697
 24
1178.86010153411
 34
0.0
 50
90.0
100
AcDbRotatedDimension
1001
ACAD
1000
DSTYLE
1002
{
1070
   279
1070
     1
1002
}
  0
ARC
  5
3367
330
1F
100
AcDbEntity
  8
実形
100
AcDbCircle
 10
1040.462399489893
 20
1278.262579924941
 30
0.0
 40
100.0
100
AcDbArc
 50
179.7231544061094
 51
269.7231544061093
  0
DIMENSION
  5
3369
330
1F
100
AcDbEntity
  8
実形
100
AcDbDimension
  2
*D58
 10
785.2293600020622
 20
1618.03806857966
 30
0.0
 11
766.479360002062
 21
1650.949085056885
 31
0.0
 70
    32
  1
65
 71
     5
 42
65.82203295444969
  3
ISO-25
100
AcDbAlignedDimension
 13
884.3081791977493
 23
1683.86010153411
 33
0.0
 14
877.699498370268
 24
1618.03806857966
 34
0.0
 50
90.0
100
AcDbRotatedDimension
1001
ACAD
1000
DSTYLE
1002
{
1070
   279
1070
     1
1002
}
  0
ARC
  5
3389
330
1F
100
AcDbEntity
  8
実形
100
AcDbCircle
 10
1096.621029480558
 20
1517.917127504428
 30
0.0
 40
100.0
100
AcDbArc
 50
359.7231544061094
 51
89.76719794232899
  0
ARC
  5
338A
330
1F
100
AcDbEntity
  8
実形
100
AcDbCircle
 10
1041.621467235564
 20
1518.140600888203
 30
0.0
 40
100.0
100
AcDbArc
 50
89.76719794232893
 51
179.7231544061093
  0
ARC
  5
338B
330
1F
100
AcDbEntity
  8
実形
100
AcDbCircle
 10
1095.461757450292
 20
1277.996828266708
 30
0.0
 40
100.0
100
AcDbArc
 50
269.7231544061094
 51
359.7231544061094
  0
DIMENSION
  5
33A9
330
1F
100
AcDbEntity
  8
実形
100
AcDbDimension
  2
*D59
 10
853.3328062951877
 20
1468.860101534109
 30
0.0
 11
834.5828062951875
 21
1543.449085056885
 31
0.0
 70
    32
  1
150
 71
     5
 42
149.1779670455505
  3
ISO-25
100
AcDbAlignedDimension
 13
942.699498370268
 23
1618.03806857966
 33
0.0
 14
942.699498370268
 24
1468.860101534109
 34
0.0
 50
90.0
100
AcDbRotatedDimension
1001
ACAD
1000
DSTYLE
1002
{
1070
   279
1070
     1
1002
}
  0
DIMENSION
  5
341A
330
1F
100
AcDbEntity
  8
実形
100
AcDbDimension
  2
*D60
 10
1794.559094235713
 20
932.1143032368091
 30
0.0
 11
1349.559094235713
 21
950.8643032368091
 31
0.0
 70
    32
 71
     5
 42
889.9999999999998
  3
ISO-25
100
AcDbAlignedDimension
 13
904.5590942357129
 23
1155.86010153411
 33
0.0
 14
1794.559094235713
 24
1155.922440018559
 34
0.0
100
AcDbRotatedDimension
1001
ACAD
1000
DSTYLE
1002
{
1070
   279
1070
     1
1002
}
  0
LINE
  5
3531
330
1F
100
AcDbEntity
  8
0
100
AcDbLine
 10
687.3721056737659
 20
1175.86010153411
 30
0.0
 11
687.3721056737659
 21
1161.86010153411
 31
0.0
  0
LINE
  5
3532
330
1F
100
AcDbEntity
  8
0
100
AcDbLine
 10
672.372105673766
 20
1190.86010153411
 30
0.0
 11
672.3721056737664
 21
1181.86010153411
 31
0.0
  0
LINE
  5
3533
330
1F
100
AcDbEntity
  8
実形
100
AcDbLine
 10
687.3721056737659
 20
1665.860101534109
 30
0.0
 11
687.3721056737659
 21
1651.86010153411
 31
0.0
  0
LINE
  5
3534
330
1F
100
AcDbEntity
  8
実形
100
AcDbLine
 10
672.372105673766
 20
1645.86010153411
 30
0.0
 11
672.3721056737655
 21
1636.86010153411
 31
0.0
  0
LINE
  5
3536
330
1F
100
AcDbEntity
  8
実形
100
AcDbLine
 10
687.3721056737659
 20
1161.86010153411
 30
0.0
 11
687.3721056737659
 21
1178.86010153411
 31
0.0
  0
LINE
  5
3537
330
1F
100
AcDbEntity
  8
実形
100
AcDbLine
 10
672.3721056737664
 20
1181.86010153411
 30
0.0
 11
672.3721056737664
 21
1190.86010153411
 31
0.0
  0
LINE
  5
3539
330
1F
100
AcDbEntity
  8
実形
100
AcDbLine
 10
687.3721056737659
 20
1665.860101534109
 30
0.0
 11
687.3721056737659
 21
1161.86010153411
 31
0.0
  0
LINE
  5
353A
330
1F
100
AcDbEntity
  8
実形
100
AcDbLine
 10
672.372105673766
 20
1571.860101534109
 30
0.0
 11
672.372105673766
 21
1641.360101534109
 31
0.0
  0
LINE
  5
353C
330
1F
100
AcDbEntity
  8
実形
100
AcDbLine
 10
672.372105673766
 20
1606.61010153411
 30
0.0
 11
672.3721056737664
 21
1186.36010153411
 31
0.0
  0
LINE
  5
353D
330
1F
100
AcDbEntity
  8
0
100
AcDbLine
 10
687.3721056737659
 20
1175.86010153411
 30
0.0
 11
687.3721056737659
 21
1161.86010153411
 31
0.0
  0
LINE
  5
353E
330
1F
100
AcDbEntity
  8
0
100
AcDbLine
 10
672.372105673766
 20
1190.86010153411
 30
0.0
 11
672.3721056737664
 21
1181.86010153411
 31
0.0
  0
LINE
  5
353F
330
1F
100
AcDbEntity
  8
実形
100
AcDbLine
 10
687.3721056737659
 20
1161.86010153411
 30
0.0
 11
687.3721056737659
 21
1178.86010153411
 31
0.0
  0
LINE
  5
3540
330
1F
100
AcDbEntity
  8
実形
100
AcDbLine
 10
672.3721056737664
 20
1181.86010153411
 30
0.0
 11
672.3721056737664
 21
1190.86010153411
 31
0.0
  0
LINE
  5
3541
330
1F
100
AcDbEntity
  8
実形
100
AcDbLine
 10
687.3721056737659
 20
1665.86010153411
 30
0.0
 11
687.3721056737659
 21
1161.86010153411
 31
0.0
  0
LINE
  5
3542
330
1F
100
AcDbEntity
  8
0
100
AcDbLine
 10
687.3721056737669
 20
1678.860101534109
 30
0.0
 11
687.3721056737664
 21
1148.86010153411
 31
0.0
  0
LINE
  5
3543
330
1F
100
AcDbEntity
  8
0
100
AcDbLine
 10
687.3721056737659
 20
1175.86010153411
 30
0.0
 11
687.3721056737659
 21
1161.86010153411
 31
0.0
  0
LINE
  5
3544
330
1F
100
AcDbEntity
  8
実形
100
AcDbLine
 10
687.3721056737659
 20
1403.750610889926
 30
0.0
 11
687.3721056737659
 21
1161.86010153411
 31
0.0
  0
LINE
  5
3545
330
1F
100
AcDbEntity
  8
実形
100
AcDbLine
 10
682.3721056737659
 20
1155.86010153411
 30
0.0
 11
672.372105673766
 21
1155.86010153411
 31
0.0
  0
LINE
  5
3546
330
1F
100
AcDbEntity
  8
実形
100
AcDbLine
 10
682.3721056737659
 20
1158.86010153411
 30
0.0
 11
672.372105673766
 21
1158.86010153411
 31
0.0
  0
LINE
  5
3547
330
1F
100
AcDbEntity
  8
実形
100
AcDbLine
 10
687.3721056737659
 20
1161.86010153411
 30
0.0
 11
687.3721056737659
 21
1148.86010153411
 31
0.0
  0
LINE
  5
3548
330
1F
100
AcDbEntity
  8
実形
100
AcDbLine
 10
682.3721056737659
 20
1433.969592178293
 30
0.0
 11
682.3721056737659
 21
1143.86010153411
 31
0.0
  0
LINE
  5
3549
330
1F
100
AcDbEntity
  8
実形
100
AcDbLine
 10
687.3721056737659
 20
1148.86010153411
 30
0.0
 11
682.3721056737659
 21
1143.86010153411
 31
0.0
  0
LINE
  5
354A
330
1F
100
AcDbEntity
  8
実形
100
AcDbLine
 10
687.3721056737596
 20
1161.86010153411
 30
0.0
 11
687.3721056737637
 21
1403.750610889926
 31
0.0
  0
LINE
  5
354B
330
1F
100
AcDbEntity
  8
0
100
AcDbLine
 10
687.3721056737669
 20
1148.860101534111
 30
0.0
 11
687.3721056737659
 21
1678.86010153411
 31
0.0
  0
LINE
  5
354C
330
1F
100
AcDbEntity
  8
実形
100
AcDbLine
 10
672.372105673766
 20
1158.86010153411
 30
0.0
 11
672.3721056737669
 21
1181.86010153411
 31
0.0
  0
LINE
  5
354D
330
1F
100
AcDbEntity
  8
実形
100
AcDbLine
 10
687.3721056737659
 20
1665.860101534109
 30
0.0
 11
687.3721056737659
 21
1651.86010153411
 31
0.0
  0
LINE
  5
354E
330
1F
100
AcDbEntity
  8
実形
100
AcDbLine
 10
687.3721056737659
 20
1665.860101534109
 30
0.0
 11
687.3721056737659
 21
1161.860101534109
 31
0.0
  0
LINE
  5
354F
330
1F
100
AcDbEntity
  8
実形
 62
     3
100
AcDbLine
 10
687.3721056737659
 20
1665.860101534109
 30
0.0
 11
687.3721056737659
 21
1678.86010153411
 31
0.0
  0
LINE
  5
3550
330
1F
100
AcDbEntity
  8
0
100
AcDbLine
 10
687.3721056737669
 20
1678.860101534109
 30
0.0
 11
687.3721056737664
 21
1148.86010153411
 31
0.0
  0
LINE
  5
3551
330
1F
100
AcDbEntity
  8
0
100
AcDbLine
 10
687.3721056737669
 20
1148.860101534111
 30
0.0
 11
687.3721056737659
 21
1678.86010153411
 31
0.0
  0
LINE
  5
3552
330
1F
100
AcDbEntity
  8
0
100
AcDbLine
 10
687.3721056737659
 20
1651.86010153411
 30
0.0
 11
687.3721056737659
 21
1665.86010153411
 31
0.0
  0
LINE
  5
3553
330
1F
100
AcDbEntity
  8
実形
100
AcDbLine
 10
687.3721056737669
 20
1423.969592178293
 30
0.0
 11
687.3721056737659
 21
1665.86010153411
 31
0.0
  0
LINE
  5
3554
330
1F
100
AcDbEntity
  8
実形
100
AcDbLine
 10
682.3721056737659
 20
1671.86010153411
 30
0.0
 11
672.372105673766
 21
1671.86010153411
 31
0.0
  0
LINE
  5
3555
330
1F
100
AcDbEntity
  8
実形
100
AcDbLine
 10
682.3721056737659
 20
1668.86010153411
 30
0.0
 11
672.372105673766
 21
1668.86010153411
 31
0.0
  0
LINE
  5
3556
330
1F
100
AcDbEntity
  8
実形
100
AcDbLine
 10
687.3721056737659
 20
1665.86010153411
 30
0.0
 11
687.3721056737659
 21
1678.86010153411
 31
0.0
  0
LINE
  5
3557
330
1F
100
AcDbEntity
  8
実形
100
AcDbLine
 10
682.3721056737668
 20
1423.969592178292
 30
0.0
 11
682.3721056737659
 21
1683.86010153411
 31
0.0
  0
LINE
  5
3558
330
1F
100
AcDbEntity
  8
実形
100
AcDbLine
 10
687.3721056737659
 20
1678.86010153411
 30
0.0
 11
682.3721056737659
 21
1683.86010153411
 31
0.0
  0
LINE
  5
3559
330
1F
100
AcDbEntity
  8
実形
100
AcDbLine
 10
687.3721056737596
 20
1665.860101534109
 30
0.0
 11
687.3721056737641
 21
1423.969592178293
 31
0.0
  0
LINE
  5
355A
330
1F
100
AcDbEntity
  8
実形
100
AcDbLine
 10
672.372105673766
 20
1668.86010153411
 30
0.0
 11
672.372105673766
 21
1641.360101534109
 31
0.0
  0
LINE
  5
36FD
330
1F
100
AcDbEntity
  8
実形
100
AcDbLine
 10
1009.059094235713
 20
650.2661477511851
 30
0.0
 11
969.559094235713
 21
650.266147751185
 31
0.0
  0
LINE
  5
3728
330
1F
100
AcDbEntity
  8
実形
100
AcDbLine
 10
1125.059094235713
 20
650.2661477511851
 30
0.0
 11
1164.559094235713
 21
650.2661477511851
 31
0.0
  0
ARC
  5
3729
330
1F
100
AcDbEntity
  8
実形
100
AcDbCircle
 10
1164.559094235713
 20
680.2661477511851
 30
0.0
 40
30.0
100
AcDbArc
 50
270.0
 51
0.0
  0
ARC
  5
372A
330
1F
100
AcDbEntity
  8
実形
100
AcDbCircle
 10
969.559094235713
 20
680.266147751185
 30
0.0
 40
30.0
100
AcDbArc
 50
180.0
 51
270.0
  0
DIMENSION
  5
3798
330
1F
100
AcDbEntity
  8
実形
100
AcDbDimension
  2
*D62
 10
1629.559094235713
 20
1716.48343459957
 30
0.0
 11
1499.559094235713
 21
1735.233434599569
 31
0.0
 70
    32
 71
     5
 42
260.0
  3
ISO-25
100
AcDbAlignedDimension
 13
1369.559094235713
 23
1633.954046554123
 33
0.0
 14
1629.559094235713
 24
1632.366939976979
 34
0.0
100
AcDbRotatedDimension
1001
ACAD
1000
DSTYLE
1002
{
1070
   279
1070
     1
1002
}
  0
DIMENSION
  5
37E1
330
1F
100
AcDbEntity
  8
実形
100
AcDbDimension
  2
*D63
 10
1067.059094235713
 20
1804.21122774347
 30
0.0
 11
985.8090942357129
 21
1822.96122774347
 31
0.0
 70
    32
 71
     5
 42
162.5000000000001
  3
ISO-25
100
AcDbAlignedDimension
 13
904.5590942357129
 23
1703.761631375324
 33
0.0
 14
1067.059094235713
 24
1703.761631375324
 34
0.0
100
AcDbRotatedDimension
1001
ACAD
1000
DSTYLE
1002
{
1070
   279
1070
     1
1002
}
  0
DIMENSION
  5
37EE
330
1F
100
AcDbEntity
  8
実形
100
AcDbDimension
  2
*D64
 10
1499.559094235713
 20
1804.21122774347
 30
0.0
 11
1283.309094235713
 21
1822.96122774347
 31
0.0
 70
    32
 71
     5
 42
432.4999999999997
  3
ISO-25
100
AcDbAlignedDimension
 13
1067.059094235713
 23
1703.761631375324
 33
0.0
 14
1499.559094235713
 24
1703.761631375324
 34
0.0
100
AcDbRotatedDimension
1001
ACAD
1000
DSTYLE
1002
{
1070
   279
1070
     1
1002
}
  0
DIMENSION
  5
37FB
330
1F
100
AcDbEntity
  8
実形
100
AcDbDimension
  2
*D65
 10
1794.559094235713
 20
1804.21122774347
 30
0.0
 11
1647.059094235713
 21
1822.96122774347
 31
0.0
 70
    32
 71
     5
 42
295.0
  3
ISO-25
100
AcDbAlignedDimension
 13
1499.559094235713
 23
1703.761631375324
 33
0.0
 14
1794.559094235713
 24
1703.761631375324
 34
0.0
100
AcDbRotatedDimension
1001
ACAD
1000
DSTYLE
1002
{
1070
   279
1070
     1
1002
}
  0
VIEWPORT
  5
2E
102
{ACAD_XDICTIONARY
360
388A
102
}
330
1B
100
AcDbEntity
 67
     1
  8
0
100
AcDbViewport
 10
144.7270812988281
 20
101.2295806407928
 30
0.0
 40
411.6736216682419
 41
222.1517806396485
 68
     1
 69
     1
 12
144.7270812988281
 22
101.2295806407928
 13
0.0
 23
0.0
 14
10.0
 24
10.0
 15
10.0
 25
10.0
 16
0.0
 26
0.0
 36
1.0
 17
0.0
 27
0.0
 37
0.0
 42
50.0
 43
0.0
 44
0.0
 45
222.1517806396485
 50
0.0
 51
0.0
 72
   100
 90
    32800
  1

281
     0
 71
     1
 74
     0
110
0.0
120
0.0
130
0.0
111
1.0
121
0.0
131
0.0
112
0.0
122
1.0
132
0.0
 79
     0
146
0.0
  0
VIEWPORT
  5
30
102
{ACAD_XDICTIONARY
360
388C
102
}
330
1B
100
AcDbEntity
 67
     1
  8
0
100
AcDbViewport
 10
139.2237563133239
 20
101.2295821905136
 30
0.0
 40
222.7580101013184
 41
161.9673315048218
 68
     2
 69
     2
 12
210.0
 22
148.5
 13
0.0
 23
0.0
 14
10.0
 24
10.0
 15
10.0
 25
10.0
 16
0.0
 26
0.0
 36
1.0
 17
0.0
 27
0.0
 37
0.0
 42
50.0
 43
0.0
 44
0.0
 45
309.0686705647124
 50
0.0
 51
0.0
 72
   100
 90
    32864
  1

281
     0
 71
     1
 74
     0
110
0.0
120
0.0
130
0.0
111
1.0
121
0.0
131
0.0
112
0.0
122
1.0
132
0.0
 79
     0
146
0.0
  0
ENDSEC
  0
SECTION
  2
OBJECTS
  0
DICTIONARY
  5
C
330
0
100
AcDbDictionary
281
     1
  3
ACAD_COLOR
350
19F9
  3
ACAD_GROUP
350
D
  3
ACAD_LAYOUT
350
1A
  3
ACAD_MATERIAL
350
19F8
  3
ACAD_MLINESTYLE
350
17
  3
ACAD_PLOTSETTINGS
350
19
  3
ACAD_PLOTSTYLENAME
350
E
  3
ACAD_TABLESTYLE
350
19FA
  3
AcadDim
350
5B1
  3
ACDBHEADERROUNDTRIPXREC
350
3883
  3
AcDbVariableDictionary
350
96D
  0
DICTIONARY
  5
1A37
330
2
100
AcDbDictionary
280
     1
281
     1
  3
ACAD_LAYERFILTERS
360
1BD9
  3
ACAD_LAYERSTATES
360
1A38
  3
ACLYDICTIONARY
360
1BD8
  0
DICTIONARY
  5
1C06
330
1F
100
AcDbDictionary
280
     1
281
     1
  3
ACAD_SORTENTS
360
1C07
  0
DICTIONARY
  5
1BE2
330
1BDF
100
AcDbDictionary
280
     1
281
     1
  3
ACAD_SORTENTS
360
1BE3
  0
DICTIONARY
  5
388A
330
2E
100
AcDbDictionary
280
     1
281
     1
  3
ACAD_XREC_ROUNDTRIP
360
388B
  0
DICTIONARY
  5
388C
330
30
100
AcDbDictionary
280
     1
281
     1
  3
ACAD_XREC_ROUNDTRIP
360
388D
  0
DICTIONARY
  5
19F9
102
{ACAD_REACTORS
330
C
102
}
330
C
100
AcDbDictionary
281
     1
  0
DICTIONARY
  5
D
102
{ACAD_REACTORS
330
C
102
}
330
C
100
AcDbDictionary
281
     1
  0
DICTIONARY
  5
1A
102
{ACAD_REACTORS
330
C
102
}
330
C
100
AcDbDictionary
281
     1
  3
Model
350
22
  3
ﾚｲｱｳﾄ1
350
1E
  3
ﾚｲｱｳﾄ2
350
26
  0
DICTIONARY
  5
19F8
102
{ACAD_REACTORS
330
C
102
}
330
C
100
AcDbDictionary
281
     1
  0
DICTIONARY
  5
17
102
{ACAD_REACTORS
330
C
102
}
330
C
100
AcDbDictionary
281
     1
  3
Standard
350
18
  0
DICTIONARY
  5
19
102
{ACAD_REACTORS
330
C
102
}
330
C
100
AcDbDictionary
281
     1
  0
ACDBDICTIONARYWDFLT
  5
E
102
{ACAD_REACTORS
330
C
102
}
330
C
100
AcDbDictionary
281
     1
  3
Normal
350
F
100
AcDbDictionaryWithDefault
340
F
  0
DICTIONARY
  5
19FA
102
{ACAD_REACTORS
330
C
102
}
330
C
100
AcDbDictionary
281
     1
  3
Standard
350
19FB
  0
XRECORD
  5
5B1
102
{ACAD_REACTORS
330
C
102
}
330
C
100
AcDbXrecord
280
     1
 90
   990106
  3

 60
     0
 61
     0
 62
     1
 63
     3
 64
     0
 65
     0
 66
     0
 67
     3
 68
     1
 69
     0
 70
     0
 71
     0
 72
     0
 40
5.637859010809637
170
     0
340
0
  0
DICTIONARY
  5
3883
102
{ACAD_REACTORS
330
C
102
}
330
C
100
AcDbDictionary
281
     1
  0
DICTIONARY
  5
96D
102
{ACAD_REACTORS
330
C
102
}
330
C
100
AcDbDictionary
281
     1
  3
CTABLESTYLE
350
1A01
  3
DIMASSOC
350
3880
  3
PROJECTNAME
350
3881
  3
SORTENTS
350
96E
  0
DICTIONARY
  5
1BD9
102
{ACAD_REACTORS
330
1A37
102
}
330
1A37
100
AcDbDictionary
281
     1
  0
DICTIONARY
  5
1A38
102
{ACAD_REACTORS
330
1A37
102
}
330
1A37
100
AcDbDictionary
281
     1
  0
DICTIONARY
  5
1BD8
102
{ACAD_REACTORS
330
1A37
102
}
330
1A37
100
AcDbDictionary
281
     1
1001
ACAD
1000
<All
  0
SORTENTSTABLE
  5
1C07
102
{ACAD_REACTORS
330
1C06
102
}
330
1C06
100
AcDbSortentsTable
330
1F
331
3067
  5
28DA
331
2FE8
  5
2FF0
331
3544
  5
3546
331
354C
  5
354E
331
3326
  5
3335
331
3554
  5
3556
331
2500
  5
21B2
331
21B2
  5
236D
331
2441
  5
245F
331
282F
  5
2892
331
2449
  5
24F9
331
2837
  5
283B
331
25B8
  5
25C4
331
48E
  5
532
331
260
  5
32F
331
49E
  5
53C
331
36FD
  5
36FF
331
3DF
  5
49E
331
4AE
  5
5A1
331
2FF0
  5
2FF8
331
29BE
  5
2A06
331
2887
  5
28D0
331
29C6
  5
2A17
331
288F
  5
28D9
331
2A06
  5
2A18
331
2E1C
  5
2E22
331
2E53
  5
2E5B
331
2BF5
  5
2E1C
331
28D7
  5
2997
331
2E5B
  5
2FE9
331
22F2
  5
2457
331
25C0
  5
277B
331
353D
  5
353F
331
1E4F
  5
2175
331
239A
  5
244C
331
2035
  5
2254
331
2778
  5
277E
331
21A3
  5
20D9
331
2461
  5
25B4
331
203D
  5
2257
331
2780
  5
2836
331
21AB
  5
2284
331
A9
  5
AB
331
1BFA
  5
1F45
331
5F4
  5
EB6
331
5FC
  5
1496
331
2A16
  5
2D3A
331
2997
  5
29A0
331
2E34
  5
2E3A
331
299F
  5
29BD
331
2E3C
  5
2E43
331
2FE9
  5
2FF1
331
3545
  5
3547
331
9C
  5
9C
331
354D
  5
354F
331
3327
  5
338A
331
3555
  5
3557
331
2501
  5
2256
331
2830
  5
2839
331
244A
  5
2502
331
2838
  5
2835
331
22EB
  5
2447
331
25B9
  5
25C5
331
48F
  5
537
331
54E
  5
5F4
331
5AD
  5
E80
331
50F
  5
5AD
331
2FF1
  5
2FF9
331
29BF
  5
2A07
331
2890
  5
28DB
331
2A07
  5
2BF2
331
28D0
  5
2994
331
2E1D
  5
2E23
331
2E54
  5
2E5C
331
2BF6
  5
2E1D
331
2E5C
  5
2FEA
331
3536
  5
3539
331
32E0
  5
3334
331
353E
  5
3540
331
2095
  5
225D
331
22F3
  5
2458
331
1F57
  5
2202
331
2462
  5
25B9
331
203E
  5
219E
331
21AC
  5
22B5
331
3E0
  5
4A7
331
AA
  5
AD
331
1BFB
  5
1F46
331
586
  5
5FC
331
5F5
  5
EBB
331
5FD
  5
1499
331
537
  5
5B4
331
1DDB
  5
207F
331
480
  5
4AE
331
53F
  5
5BA
331
28D8
  5
2998
331
2A17
  5
2D3B
331
2998
  5
29A1
331
2E35
  5
2E3B
331
29A0
  5
29BE
331
2FEA
  5
2FF2
331
3546
  5
3548
331
354E
  5
3550
331
A5
  5
A8
331
3556
  5
3558
331
2502
  5
21A9
331
21B4
  5
236F
331
2831
  5
2887
331
2443
  5
24FF
331
2254
  5
2445
331
25B2
  5
25BD
331
2839
  5
2834
331
22EC
  5
2448
331
25BA
  5
25C6
331
262
  5
339
331
1A44
  5
1E4C
331
1E23
  5
21A5
331
A2D
  5
1A82
331
2FF2
  5
2FFA
331
29C0
  5
2A08
331
2889
  5
28D5
331
2A08
  5
2BF3
331
2E55
  5
2E5D
331
3242
  5
32CA
331
2E5D
  5
2FEC
331
3537
  5
353A
331
353F
  5
3541
331
22F4
  5
245A
331
21A5
  5
227E
331
2463
  5
25BA
331
21AD
  5
22B7
331
204F
  5
225B
331
AB
  5
25F
331
1BFC
  5
1F48
331
5F6
  5
EDE
331
5FE
  5
149B
331
540
  5
5D0
331
59F
  5
5FE
331
39A
  5
3DE
331
28D9
  5
2999
331
2A18
  5
2E18
331
2E2E
  5
2E34
331
2999
  5
29A2
331
2E36
  5
2E3C
331
29A1
  5
29BF
331
2FEB
  5
2FF3
331
3547
  5
3549
331
354F
  5
3551
331
323B
  5
3240
331
3557
  5
3559
331
243C
  5
24FB
331
21B5
  5
23F9
331
2832
  5
2833
331
2444
  5
2503
331
244C
  5
2504
331
25B3
  5
25BE
331
25BB
  5
25C7
331
558
  5
5F5
331
1E24
  5
21AF
331
29B9
  5
29C2
331
2FF3
  5
2FFB
331
29C1
  5
2A09
331
2892
  5
28DC
331
2A09
  5
2BF4
331
2E5E
  5
2FED
331
32CA
  5
3327
331
3096
  5
261
331
3369
  5
341A
331
25C3
  5
236E
331
245C
  5
25AE
331
2038
  5
2258
331
2464
  5
25BB
331
21A6
  5
2281
331
1EE2
  5
21B6
331
2405
  5
2464
331
21AE
  5
22F1
331
511
  5
5AE
331
1BFD
  5
1F4A
331
5F7
  5
EDF
331
1C05
  5
A0
331
5FF
  5
149C
331
5A0
  5
5FF
331
39B
  5
3E3
331
3728
  5
372A
331
28DA
  5
299A
331
2E2F
  5
2E35
331
299A
  5
29A3
331
2E37
  5
2E3D
331
29A2
  5
29C0
331
2FEC
  5
2FF4
331
3389
  5
3388
331
3540
  5
3542
331
33A9
  5
3531
331
3548
  5
354A
331
3550
  5
3552
331
1F89
  5
2220
331
323C
  5
328D
331
3558
  5
355A
331
21B6
  5
243C
331
2833
  5
2886
331
2445
  5
2506
331
25AC
  5
25BC
331
2256
  5
2446
331
25B4
  5
25BF
331
283B
  5
288D
331
25BC
  5
274E
331
1E15
  5
21A0
331
5D0
  5
EAE
331
1A46
  5
1F0B
331
334
  5
39B
331
29BA
  5
29C3
331
2FF4
  5
2FFC
331
29C2
  5
2A0A
331
2E18
  5
2E1E
331
2E4F
  5
2E57
331
2A0A
  5
2BF5
331
2E20
  5
2E26
331
309F
  5
30E8
331
3531
  5
3533
331
1F4A
  5
21BA
331
3539
  5
353C
331
25C4
  5
239E
331
239E
  5
245C
331
23FE
  5
2462
331
21A7
  5
2282
331
21AF
  5
22F4
331
AD
  5
263
331
384
  5
3BF
331
1BFE
  5
1F57
331
532
  5
5B0
331
473
  5
4AA
331
5F8
  5
EE1
331
53A
  5
5B7
331
600
  5
149D
331
3729
  5
2E46
331
28DB
  5
299B
331
2E30
  5
2E36
331
299B
  5
29B9
331
2E38
  5
2E3E
331
29A3
  5
29C1
331
2FED
  5
2FF5
331
338A
  5
3369
331
3541
  5
3543
331
3549
  5
354B
331
A0
  5
A5
331
3551
  5
3553
331
3559
  5
36FD
331
243E
  5
24FC
331
21B7
  5
2442
331
2505
  5
245B
331
2834
  5
2832
331
21C7
  5
3E0
331
1FBA
  5
222D
331
25AD
  5
2449
331
25B5
  5
25C0
331
25BD
  5
2777
331
5A9
  5
600
331
55A
  5
5F8
331
1E16
  5
21A1
331
56A
  5
5FA
331
1A47
  5
1F2C
331
32D
  5
33C
331
335
  5
3B2
331
29BB
  5
29C4
331
2FF5
  5
2FFD
331
29C3
  5
2A0B
331
288C
  5
28D6
331
2E19
  5
2E1F
331
2E50
  5
2E58
331
2E21
  5
2E27
331
2A0B
  5
2BF6
331
2BF2
  5
2E19
331
341A
  5
3532
331
30A8
  5
323D
331
3532
  5
3534
331
1E4C
  5
21B1
331
353A
  5
353D
331
25C5
  5
23FA
331
20D9
  5
225F
331
21A0
  5
21AA
331
1ED4
  5
21AE
331
277D
  5
288E
331
21A8
  5
2283
331
533
  5
5B2
331
5F9
  5
EE2
331
1BFF
  5
1F89
331
601
  5
149E
331
372A
  5
2E42
331
1DFF
  5
219F
331
28DC
  5
299C
331
2994
  5
299D
331
2E31
  5
2E37
331
299C
  5
29BA
331
2E39
  5
2E3F
331
2FE6
  5
2FEE
331
338B
  5
324F
331
3542
  5
3544
331
2FEE
  5
2FF6
331
354A
  5
354C
331
3552
  5
3554
331
328D
  5
3320
331
355A
  5
36FE
331
3334
  5
3368
331
243F
  5
24FD
331
2506
  5
245E
331
1F2C
  5
21B7
331
2447
  5
25AA
331
2835
  5
2831
331
25B6
  5
25C2
331
25BE
  5
2778
331
54B
  5
5D2
331
5AA
  5
DCC
331
1E1F
  5
21A3
331
A29
  5
1A81
331
3DD
  5
407
331
5D2
  5
EB1
331
29BC
  5
29C5
331
2FF6
  5
2FFE
331
288D
  5
28D7
331
29C4
  5
2A0C
331
2E1A
  5
2E20
331
2E51
  5
2E59
331
2E22
  5
2E2E
331
2E59
  5
2FE7
331
2BF3
  5
2E1A
331
2A0C
  5
2D38
331
28D5
  5
2995
331
30A9
  5
AA
331
3533
  5
3536
331
25C6
  5
22F0
331
2457
  5
5A0
331
2033
  5
2040
331
1EC5
  5
21B4
331
245F
  5
24FE
331
277E
  5
2885
331
24FF
  5
21B0
331
1C00
  5
203A
331
5FA
  5
EFC
331
53C
  5
5B8
331
602
  5
1524
331
2E32
  5
2E38
331
2995
  5
299E
331
299D
  5
29BB
331
3066
  5
245D
331
2FE7
  5
2FEF
331
3543
  5
3545
331
2FEF
  5
2FF7
331
354B
  5
354D
331
3553
  5
3555
331
3335
  5
33A9
331
2448
  5
25AD
331
2836
  5
2838
331
25B7
  5
25C3
331
25BF
  5
277A
331
54C
  5
5D8
331
49D
  5
53A
331
55C
  5
5F9
331
1E20
  5
21A4
331
3DE
  5
40A
331
56C
  5
5FB
331
29BD
  5
29C6
331
29C5
  5
2A16
331
288E
  5
28D8
331
2E1B
  5
2E21
331
2E52
  5
2E5A
331
2BF4
  5
2E1B
331
28D6
  5
2996
331
324F
  5
32E0
331
30AA
  5
323E
331
3534
  5
3537
331
353C
  5
353E
331
22F1
  5
2455
331
2458
  5
25B3
331
2777
  5
277D
331
277F
  5
2780
331
A8
  5
A9
331
1C01
  5
203E
331
5FB
  5
1422
331
603
  5
1525
331
53D
  5
5B9
331
2E33
  5
2E39
331
2996
  5
299F
331
299E
  5
29BC
  0
SORTENTSTABLE
  5
1BE3
102
{ACAD_REACTORS
330
1BE2
102
}
330
1BE2
100
AcDbSortentsTable
330
1BDF
  0
XRECORD
  5
388B
102
{ACAD_REACTORS
330
388A
102
}
330
388A
100
AcDbXrecord
280
     1
102
SHADEPLOT
 70
     0
  0
XRECORD
  5
388D
102
{ACAD_REACTORS
330
388C
102
}
330
388C
100
AcDbXrecord
280
     1
102
SHADEPLOT
 70
     0
  0
LAYOUT
  5
22
102
{ACAD_XDICTIONARY
360
3886
102
}
102
{ACAD_REACTORS
330
1A
102
}
330
1A
100
AcDbPlotSettings
  1

  2
EPSON PM-800C
  4
A4
  6

 40
3.757083177566528
 41
14.7637300491333
 42
3.757080078125
 43
3.757080078125
 44
209.9733276367187
 45
296.9683227539062
 46
0.0
 47
0.0
 48
0.0
 49
0.0
140
0.0
141
0.0
142
1.0
143
10.0
 70
 11952
 72
     1
 73
     1
 74
     2
  7

 75
    20
147
0.1
148
0.0
149
0.0
100
AcDbLayout
  1
Model
 70
     1
 71
     0
 10
0.0
 20
0.0
 11
12.0
 21
9.0
 12
0.0
 22
0.0
 32
0.0
 14
0.0
 24
0.0
 34
0.0
 15
0.0
 25
0.0
 35
0.0
146
0.0
 13
0.0
 23
0.0
 33
0.0
 16
1.0
 26
0.0
 36
0.0
 17
0.0
 27
1.0
 37
0.0
 76
     0
330
1F
  0
LAYOUT
  5
1E
102
{ACAD_XDICTIONARY
360
3884
102
}
102
{ACAD_REACTORS
330
1A
102
}
330
1A
100
AcDbPlotSettings
  1

  2
EPSON PM-800C
  4
A4
  6

 40
3.757083177566528
 41
14.7637300491333
 42
3.757080078125
 43
3.757080078125
 44
209.9733276367187
 45
296.9683227539062
 46
0.0
 47
0.0
 48
0.0
 49
0.0
140
0.0
141
0.0
142
1.0
143
1.0
 70
   688
 72
     1
 73
     1
 74
     5
  7

 75
    16
147
1.0
148
0.0
149
0.0
100
AcDbLayout
  1
ﾚｲｱｳﾄ1
 70
     1
 71
     1
 10
-3.757080078125
 20
-3.757083177566528
 11
293.2112426757813
 21
206.2162444591522
 12
0.0
 22
0.0
 32
0.0
 14
27.8447512626648
 24
20.24591643810271
 34
0.0
 15
250.6027613639831
 25
182.2132479429245
 35
0.0
146
0.0
 13
0.0
 23
0.0
 33
0.0
 16
1.0
 26
0.0
 36
0.0
 17
0.0
 27
1.0
 37
0.0
 76
     0
330
1B
331
2E
  0
LAYOUT
  5
26
102
{ACAD_XDICTIONARY
360
3888
102
}
102
{ACAD_REACTORS
330
1A
102
}
330
1A
100
AcDbPlotSettings
  1

  2
EPSON PM-800C
  4

  6

 40
0.0
 41
0.0
 42
0.0
 43
0.0
 44
0.0
 45
0.0
 46
0.0
 47
0.0
 48
0.0
 49
0.0
140
0.0
141
0.0
142
1.0
143
1.0
 70
   688
 72
     0
 73
     0
 74
     5
  7

 75
    16
147
1.0
148
0.0
149
0.0
100
AcDbLayout
  1
ﾚｲｱｳﾄ2
 70
     1
 71
     2
 10
0.0
 20
0.0
 11
12.0
 21
9.0
 12
0.0
 22
0.0
 32
0.0
 14
0.0
 24
0.0
 34
0.0
 15
0.0
 25
0.0
 35
0.0
146
0.0
 13
0.0
 23
0.0
 33
0.0
 16
1.0
 26
0.0
 36
0.0
 17
0.0
 27
1.0
 37
0.0
 76
     0
330
23
  0
MLINESTYLE
  5
18
102
{ACAD_REACTORS
330
17
102
}
330
17
100
AcDbMlineStyle
  2
STANDARD
 70
     0
  3

 62
   256
 51
90.0
 52
90.0
 71
     2
 49
0.5
 62
   256
  6
BYLAYER
 49
-0.5
 62
   256
  6
BYLAYER
  0
ACDBPLACEHOLDER
  5
F
102
{ACAD_REACTORS
330
E
102
}
330
E
  0
TABLESTYLE
  5
19FB
102
{ACAD_REACTORS
330
19FA
102
}
330
19FA
100
AcDbTableStyle
  3
Standard
 70
     0
 71
     0
 40
1.5
 41
1.5
280
     0
281
     0
  7
Standard
140
4.5
170
     2
 62
     0
 63
     7
283
     0
274
    -2
284
     1
 64
     0
275
    -2
285
     1
 65
     0
276
    -2
286
     1
 66
     0
277
    -2
287
     1
 67
     0
278
    -2
288
     1
 68
     0
279
    -2
289
     1
 69
     0
  7
Standard
140
6.0
170
     5
 62
     0
 63
     7
283
     0
274
    -2
284
     1
 64
     0
275
    -2
285
     1
 65
     0
276
    -2
286
     1
 66
     0
277
    -2
287
     1
 67
     0
278
    -2
288
     1
 68
     0
279
    -2
289
     1
 69
     0
  7
Standard
140
4.5
170
     5
 62
     0
 63
     7
283
     0
274
    -2
284
     1
 64
     0
275
    -2
285
     1
 65
     0
276
    -2
286
     1
 66
     0
277
    -2
287
     1
 67
     0
278
    -2
288
     1
 68
     0
279
    -2
289
     1
 69
     0
  0
DICTIONARYVAR
  5
1A01
102
{ACAD_REACTORS
330
96D
102
}
330
96D
100
DictionaryVariables
280
     0
  1
STANDARD
  0
DICTIONARYVAR
  5
3880
102
{ACAD_REACTORS
330
96D
102
}
330
96D
100
DictionaryVariables
280
     0
  1
1
  0
DICTIONARYVAR
  5
3881
102
{ACAD_REACTORS
330
96D
102
}
330
96D
100
DictionaryVariables
280
     0
  1

  0
DICTIONARYVAR
  5
96E
102
{ACAD_REACTORS
330
96D
102
}
330
96D
100
DictionaryVariables
280
     0
  1
96
  0
DICTIONARY
  5
3886
330
22
100
AcDbDictionary
280
     1
281
     1
  3
ACAD_XREC_ROUNDTRIP
360
3887
  0
DICTIONARY
  5
3884
330
1E
100
AcDbDictionary
280
     1
281
     1
  3
ACAD_XREC_ROUNDTRIP
360
3885
  0
DICTIONARY
  5
3888
330
26
100
AcDbDictionary
280
     1
281
     1
  3
ACAD_XREC_ROUNDTRIP
360
3889
  0
XRECORD
  5
3887
102
{ACAD_REACTORS
330
3886
102
}
330
3886
100
AcDbXrecord
280
     1
102
SHADEPLOT
 70
     0
102
SHADEPLOTRESLEVEL
 70
     2
102
SHADEPLOTCUSTOMDPI
 70
   300
  0
XRECORD
  5
3885
102
{ACAD_REACTORS
330
3884
102
}
330
3884
100
AcDbXrecord
280
     1
102
SHADEPLOT
 70
     0
102
SHADEPLOTRESLEVEL
 70
     2
102
SHADEPLOTCUSTOMDPI
 70
   300
  0
XRECORD
  5
3889
102
{ACAD_REACTORS
330
3888
102
}
330
3888
100
AcDbXrecord
280
     1
102
SHADEPLOT
 70
     0
102
SHADEPLOTRESLEVEL
 70
     2
102
SHADEPLOTCUSTOMDPI
 70
   300
  0
ENDSEC
  0
EOF
